Михаэль Кольхаас / Michael Kohlhaas (Арно де Пальер) [2013, Драма, история, BDRip-AVC]

Ответить на тему
 

Каротажник ®

Стаж: 4 года 1 месяц

Сообщений: 195

Симпатии: 211

Михаэль Кольхаас /Michael Kohlhaas

Год выпуска: 2013
Страна: Франция
Германия
Жанр: Драма, история
Продолжительность: 02:01:26
Перевод: Любительское (двухголосое) [datynet & selena]-Режиссёр: Арно де Пальер
В ролях: Мадс Миккельсен, Мелюсин Маянс, Дэльфин Шийо, Давид Кросс, Бруно Ганц, Дени Лаван, Роксана Дюран, Пол Бартел, Давид Беннент, Сванн Арло-
События фильма разворачиваются в 16 веке. Обеспеченный продавец лошадей Михаэль Кольхаас живет счастливой семейной жизнью в Севеннах. Михаэль по своей сущности человек добрый, честный и справедливый, никому не желающий зла. Но однажды с ним поступили крайне несправедливо. Тогда Михаэль берет в руки оружие и вместе с вновь созданной им армией принимается за грабеж городов. Все это он делает во имя справедливости.- -
Качество: BDRip-AVC
Формат: MKV
Видео: AVC, 1495 kb/s, 1268x544, 23.976 fps
Аудио: MP3, 192 kb/s, (2 ch), 44.1 KHz

Media Info

E:\Kino\russ\Michael.Kohlhaas.2013.BRRip.mkv
General
Unique ID : 235441000265621159147377579939808805434 (0xB120498987E60FDAA485F968836A023A)
Complete name : E:\Kino\russ\Michael.Kohlhaas.2013.BRRip.mkv
Format : Matroska
Format version : Version 4 / Version 2
File size : 1.46 GiB
Duration : 2h 1mn
Overall bit rate : 1 721 Kbps
Encoded date : UTC 2014-01-29 08:52:03
Writing application : mkvmerge v6.3.0 ('You can't stop me!') built on Jun 28 2013 20:09:41
Writing library : libebml v1.3.0 + libmatroska v1.4.0
Video #1
ID : 1
Format : AVC
Format/Info : Advanced Video Codec
Format profile : [email protected]
Format settings, CABAC : Yes
Format settings, ReFrames : 4 frames
Codec ID : V_MPEG4/ISO/AVC
Duration : 2h 1mn
Bit rate : 1 495 Kbps
Width : 1 268 pixels
Height : 544 pixels
Display aspect ratio : 2.35:1
Frame rate mode : Variable
Frame rate : 23.976 fps
Color space : YUV
Chroma subsampling : 4:2:0
Bit depth : 8 bits
Scan type : Progressive
Bits/(Pixel*Frame) : 0.090
Stream size : 1.27 GiB (87%)
Writing library : x264 core 130 r2273 b3065e6
Encoding settings : cabac=1 / ref=1 / deblock=1:0:0 / analyse=0x1:0x111 / me=hex / subme=2 / psy=1 / psy_rd=1.00:0.00 / mixed_ref=0 / me_range=16 / chroma_me=1 / trellis=0 / 8x8dct=0 / cqm=0 / deadzone=21,11 / fast_pskip=1 / chroma_qp_offset=0 / threads=6 / lookahead_threads=2 / sliced_threads=0 / nr=0 / decimate=1 / interlaced=0 / bluray_compat=0 / constrained_intra=0 / bframes=3 / b_pyramid=2 / b_adapt=1 / b_bias=0 / direct=1 / weightb=1 / open_gop=0 / weightp=1 / keyint=240 / keyint_min=24 / scenecut=40 / intra_refresh=0 / rc_lookahead=10 / rc=crf / mbtree=1 / crf=20.0 / qcomp=0.60 / qpmin=0 / qpmax=69 / qpstep=4 / vbv_maxrate=20000 / vbv_bufsize=25000 / crf_max=0.0 / nal_hrd=none / ip_ratio=1.40 / aq=1:1.00
Language : English
Default : Yes
Forced : No
Color primaries : BT.709-5, BT.1361, IEC 61966-2-4, SMPTE RP177
Transfer characteristics : BT.709-5, BT.1361
Matrix coefficients : BT.709-5, BT.1361, IEC 61966-2-4 709, SMPTE RP177
Audio #2
ID : 2
Format : MPEG Audio
Format version : Version 1
Format profile : Layer 3
Codec ID : A_MPEG/L3
Codec ID/Hint : MP3
Duration : 2h 1mn
Bit rate mode : Constant
Bit rate : 192 Kbps
Channel(s) : 2 channels
Sampling rate : 44.1 KHz
Compression mode : Lossy
Stream size : 167 MiB (11%)
Default : Yes
Forced : No

Скриншоты




Последний раз редактировалось: Каротажник (2014-01-30 01:41), всего редактировалось 2 раз(а)

Создавать темы 30-Янв-2014 00:40

[Профиль]  [ЛС] 

Топик был перенесен из форума Фильмы за 2013 в форум HD-AVC

Grock

Создавать темы 30-Янв-2014 01:37

 
Показать сообщения:    
Ответить на тему

Текущее время: 23-Ноя 10:34

Часовой пояс: UTC + 5



Вы не можете начинать темы
Вы не можете отвечать на сообщения
Вы не можете редактировать свои сообщения
Вы не можете удалять свои сообщения
Вы не можете голосовать в опросах
Вы не можете прикреплять файлы к сообщениям
Вы не можете скачивать файлы