Гуррен-Лаганн / Tengen Toppa Gurren Lagann (Имайси Хироюки) [TV] [27 из 27] [без хардсаба] [RUS(ext), JAP+SUB] [2007 г., приключения, фантастика, меха, драма, BDRip] [720p]

Ответить на тему
 

MeiDoCorpse ®

Стаж: 4 года 7 месяцев

Сообщений: 222

Симпатии: 14

- Год выпуска: 2007
Страна: Япония
Жанр: приключения, комедия, фантастика, меха, сёнэн, драма
Продолжительность: ТВ | 27 эп. по 25 мин.-Режиссёр: Имайси Хироюки
Сценарий: Накасима Кадзуки
Студия: GAINAX-Описание:
Сотни лет люди живут в глубоких пещерах, в постоянном страхе перед землетрясениями и обвалами. В одной из таких подземных деревень живет мальчик Симон и его «духовный наставник» — молодой парень Камина. Камина верит, что наверху есть другой мир, без стен и потолков; его мечта — попасть туда. Но его мечты остаются пустыми фантазиями, пока в один прекрасный день Симон случайно не находит дрель... вернее, ключ от странного железного лица в толще земли. В этот же день происходит землетрясение, и потолок пещеры рушится — так начинается поистине эпическое приключение Симона, Камины и их компаньонов в новом для них мире: мире под открытым небом огромной Вселенной.
© World Art-Cсылки: Официальная страница || AniDB || World Art || MAL-Качество: BDRip
Энкод: Winter
Контейнер: mkv
Тип видео: Без хардсаба
Наличие линковки: Нет
Видео: x264 (Hi10p), 1280x720, ~4500 Kbps, 23.976 fps
Аудио: Japanese, Vorbis, 48000Hz, ~256 Kbps, 2ch, в составе контейнера
Аудио: Russian, AC3, 48000Hz, ~448 Kbps, 5.1ch, внешними файлами | дубляж от Reanimedia
Субтитры: Russian, ASS, внешними файлами | перевод от Reanimedia-

Список эпизодов

01. Pierce the Heavens with Your Drill!
02. I Said I`d Ride It
03. You Two-Faced Son of a Bitch!
04. Does Having So Many Faces Make You Great?
05. I Don`t Understand It At All!
06. All of You Bastards Put Us In Hot Water!
07. You`ll Be the One To Do That!
08. Farewell Comrades!
09. Just What Exactly Is a Human?
10. Who Really Was Your Big Brother?
11. Simon, Please Remove Your Hand
12. Youko-san, I Have Something to Ask of You
13. Everybody, Eat to Your Heart`s Content
14. How Are You, Everyone?
15. I`ll Head Towards Tomorrow
16. Summary Episode
17. You Understand Nothing
18. I`ll Make You Tell the Truth of the World
19. We Must Survive. No Matter What It Takes!
20. Oh God, To How Far Will You Test Us?
21. You Must Survive
22. And to Space
23. Let`s Go, The Final Battle
24. We Will Never Forget, This Minute and Second
25. I Accept Your Dying Wish!
26. Let`s Go, Comrades!
27. All the Lights in the Sky are Stars

Скриншоты

Подробные тех. данные

General
Unique ID : 253083597175890843841433378772201627801 (0xBE6620B9094517D88FF2C0910CA9E099)
Complete name : E:\[Winter] Tengen Toppa Gurren Lagann 02 [BDrip 1280x720 x264 Vorbis].mkv
Format : Matroska
Format version : Version 2
File size : 702 MiB
Duration : 24mn 21s
Overall bit rate mode : Variable
Overall bit rate : 4 031 Kbps
Encoded date : UTC 2013-07-24 10:06:44
Writing application : mkvmerge v2.9.8 ('C'est le bon') built on Aug 13 2009 12:49:06
Writing library : libebml v0.7.7 + libmatroska v0.8.1
Video
ID : 1
Format : AVC
Format/Info : Advanced Video Codec
Format profile : High [email protected]
Format settings, CABAC : Yes
Format settings, ReFrames : 9 frames
Codec ID : V_MPEG4/ISO/AVC
Duration : 24mn 21s
Bit rate : 3 695 Kbps
Width : 1 280 pixels
Height : 720 pixels
Display aspect ratio : 16:9
Frame rate mode : Constant
Frame rate : 23.976 fps
Color space : YUV
Chroma subsampling : 4:2:0
Bit depth : 10 bits
Scan type : Progressive
Bits/(Pixel*Frame) : 0.167
Stream size : 644 MiB (92%)
Writing library : x264 core 132 r2309 3b1f1f7
Encoding settings : cabac=1 / ref=9 / deblock=1:-2:-2 / analyse=0x3:0x133 / me=umh / subme=9 / psy=1 / psy_rd=0.90:0.00 / mixed_ref=1 / me_range=24 / chroma_me=1 / trellis=2 / 8x8dct=1 / cqm=0 / deadzone=21,11 / fast_pskip=1 / chroma_qp_offset=-2 / threads=6 / lookahead_threads=1 / sliced_threads=0 / nr=0 / decimate=0 / interlaced=0 / bluray_compat=0 / constrained_intra=0 / bframes=8 / b_pyramid=2 / b_adapt=2 / b_bias=0 / direct=1 / weightb=1 / open_gop=0 / weightp=2 / keyint=250 / keyint_min=23 / scenecut=40 / intra_refresh=0 / rc=crf / mbtree=0 / crf=16.0 / qcomp=0.70 / qpmin=9 / qpmax=40 / qpstep=4 / ip_ratio=1.40 / pb_ratio=1.30 / aq=1:0.90
Default : No
Forced : No
Audio
ID : 2
Format : Vorbis
Format settings, Floor : 1
Codec ID : A_VORBIS
Duration : 24mn 21s
Bit rate mode : Variable
Bit rate : 256 Kbps
Channel count : 2 channels
Sampling rate : 48.0 KHz
Compression mode : Lossy
Stream size : 44.6 MiB (6%)
Writing library : libVorbis (Schaufenugget) (20101101 (Schaufenugget))
Language : Japanese
Default : Yes
Forced : No


Последний раз редактировалось: MeiDoCorpse (2015-07-23 23:07), всего редактировалось 1 раз

Создавать темы 30-Янв-2014 14:05

[Профиль]  [ЛС] 

dreed

Стаж: 4 года 10 месяцев

Сообщений: 4

зачётная анимешка ! Советую всем обязательно позырте)

Создавать темы 30-Янв-2014 17:11

[Профиль]  [ЛС] 

bl4ckSun

Стаж: 4 года 2 месяца

Сообщений: 48

Симпатии: 1

блин жаль что я бдшку уже стянул))) 19гб а так бы скачал / хотя я вроде разницы уж такой не замечаю)))

Создавать темы 30-Янв-2014 18:46

[Профиль]  [ЛС] 

Vergil

Стаж: 6 лет 4 месяца

Сообщений: 689

bl4ckSun,

отличия

  • там 8 bit тут Hi10p
  • битрейт тут почти в 2 раза выше. тут же экшен на экшене кажется, хотя и там для моего моника нормуль.
  • и самое главное озвучка там вшита, а тут внешними файлами

Создавать темы 30-Янв-2014 19:22

[Профиль]  [ЛС] 

bl4ckSun

Стаж: 4 года 2 месяца

Сообщений: 48

Симпатии: 1

bl4ckSun,

отличия

  • там 8 bit тут Hi10p
  • битрейт тут почти в 2 раза выше. тут же экшен на экшене кажется, хотя и там для моего моника нормуль.
  • и самое главное озвучка там вшита, а тут внешними файлами
на счет 8-bit и hi10p да hi10p круче и у меня комп вполне поддерживает даже самые сжатые равки без лагов
судя по скринам разницы никакой ну разве что картинка на 0.0001 насыщение
а на счет озвучки да какая разница вшита не вшита есть прога с которой в считанные секунды можно вшить и отделить озвучку от файла!)

Создавать темы 30-Янв-2014 20:39

[Профиль]  [ЛС] 

Rizo12

Стаж: 3 года 11 месяцев

Сообщений: 7

дайте пожалуйста скорости!!!!!!!!!!!!!!!!!!!!!!

Информация от SNIL


3.9. Размещать бессмысленные сообщения, не несущие абсолютно никакой полезной информации, типа "дайте скорости", "встаньте на раздачу", "раздаю", "газу" и т.п.

Создавать темы 07-Мар-2014 07:50

[Профиль]  [ЛС] 

Rizo12

Стаж: 3 года 11 месяцев

Сообщений: 7

модератор,подругому не получается,я вот 13гб "бригада" качаю уже 45 дней на 79%лежит 3 день

Создавать темы 09-Мар-2014 01:46

[Профиль]  [ЛС] 

dizzy

Стаж: 5 лет 11 месяцев

Сообщений: 94

Симпатии: 1

Классная Анимеха,а озвучка на высоте.

Создавать темы 01-Май-2014 12:04

[Профиль]  [ЛС] 

Rambotnik

Стаж: 6 лет 7 месяцев

Сообщений: 1274

Симпатии: 81

Думаю, имеет смысл закрепить тему в топе.

Создавать темы 02-Май-2014 20:24

[Профиль]  [ЛС] 

Азиз87

Стаж: 5 лет 1 месяц

Сообщений: 752

Симпатии: 143

822823Думаю, имеет смысл закрепить тему в топе.
Поддерживаю ваше предложение.

Создавать темы 02-Май-2014 21:06

[Профиль]  [ЛС] 

dizzy

Стаж: 5 лет 11 месяцев

Сообщений: 94

Симпатии: 1

Блин Озвучка Проф),охото больше аниме от реанимедии=(

Создавать темы 03-Май-2014 00:08

[Профиль]  [ЛС] 

Rambotnik

Стаж: 6 лет 7 месяцев

Сообщений: 1274

Симпатии: 81

ИМХО, не все озвучки от реанимедии и МСЕ заслуживают внимания.

Создавать темы 03-Май-2014 11:39

[Профиль]  [ЛС] 
Показать сообщения:    
Ответить на тему

Текущее время: 17-Дек 16:42

Часовой пояс: UTC + 5



Вы не можете начинать темы
Вы не можете отвечать на сообщения
Вы не можете редактировать свои сообщения
Вы не можете удалять свои сообщения
Вы не можете голосовать в опросах
Вы не можете прикреплять файлы к сообщениям
Вы не можете скачивать файлы