BASS DAY NEW YORK 98 [1999 г., JAZZ, DVDRip]

Ответить на тему
 

arturtairov ®

Стаж: 5 лет

Сообщений: 79

Симпатии: 5

BASS DAY NEW YORK 98
Год выпуска: 1999
Страна: U.S.A.
Жанр: JAZZ
Продолжительность: 1ч: 45мин
Описание: Потрясающий концерт таких мастеров джазовой музыки как Виктор Вутн, Джон Патитутчи Майкл Мэнринг и др.
ценители джаза не останутся равнодушными
Качество: DVDRip
Формат: MPEG
Видео кодек: Другой MPEG4
Аудио кодек: M4A (tracks)

Видео:

Video ID: 1
Format : MPEG-4
Visual Format profile: [email protected] Format settings,
BVOP: No Format settings,
QPel: No Format settings,
GMC: No warppoints Format settings,
Matrix: Default (H.263)
Codec ID: 20
Duration: 1h 45mn
Bit rate: 1 011 Kbps
Width: 480 pixels
Height: 360 pixels
Display aspect ratio: 4:3
Frame rate mode: Variable
Frame rate: 29.970 fps
Minimum frame rate: 29.976 fps
Maximum frame rate: 30.218 fps
Color space: YUV
Chroma subsampling: 4:2:0
Bit depth: 8 bits
Scan type: Progressive
Compression mode: Lossy
Bits/(Pixel*Frame): 0.195
Stream size: 764 MiB (86%)
Writing library: ZJMedia MPEG Encoder

Аудио:

ID: 2
Format: AAC
Format/Info: Advanced
Audio Codec Format profile: LC
Codec ID : 40
Duration: 1h 45mn
Bit rate mode: Variable
Bit rate: 152 Kbps
Channel(s): 2 channels
Channel positions: Front: L R
Sampling rate: 44.1 KHz
Compression mode: Lossy
Stream size: 115 MiB (13%)

Скриншоты



Последний раз редактировалось: arturtairov (2014-01-31 00:04), всего редактировалось 21 раз(а)

Создавать темы 30-Янв-2014 23:09

[Профиль]  [ЛС] 

IQBOT

Стаж: 6 лет 8 месяцев

Сообщений: 449

Симпатии: 81

arturtairov, скриншоты в студию. Продолжительность в формате чч:мм:сс

Создавать темы 30-Янв-2014 23:12

[Профиль]  [ЛС] 

arturtairov ®

Стаж: 5 лет

Сообщений: 79

Симпатии: 5

Вот ещё релизы
http://tas-ix.net/viewtopic.php?t=87544&spmode=full#seeders
http://tas-ix.net/viewtopic.php?t=87539&spmode=full#seeders

Создавать темы 03-Фев-2014 00:46

[Профиль]  [ЛС] 
Показать сообщения:    
Ответить на тему

Текущее время: 22-Сен 02:08

Часовой пояс: UTC + 5



Вы не можете начинать темы
Вы не можете отвечать на сообщения
Вы не можете редактировать свои сообщения
Вы не можете удалять свои сообщения
Вы не можете голосовать в опросах
Вы не можете прикреплять файлы к сообщениям
Вы не можете скачивать файлы