Разумное сомнение / Reasonable Doubt (Питер Хауит)[2014, Германия, Канада, триллер, криминал, WEB-DLRip]

Страницы :  1, 2, 3  След.

Ответить на тему
 

victor0778 ®

Стаж: 6 лет 9 месяцев

Сообщений: 1670

Симпатии: 142

Разумное сомнение
Reasonable Doubt
- Год выпуска: 2014
Страны: Германия, Канада
Жанры: триллер, криминал
Продолжительность: 01:31:16
Озвучивание: Любительское (одноголосое)-Режиссер: Питер Хауит-Сценарий: Питер Э. Даулинг
Продюсер: Бэрри Брукер, Фрэнк Бучс, Кайл Ирвинг, ...
Оператор: Брайан Пирсон
Композитор : Джеймс Джендриш
Художник: Крэйг Сенделлс, Ларри Спиттл, Патриция Дж. Хендерсон, ...
Монтаж: Ричард Швэдел-В ролях: Доминик Купер / Dominic Cooper (Mitch Brockden), Сэмюэл Л. Джексон / Samuel L. Jackson (Clinton Davis), Эрин Карплак / Erin Karpluk (Rachel Brockden), Глория Рубен / Gloria Reuben (Detective Blake Kanon), Райан Роббинс / Ryan Robbins (Jimmy Logan), Дилан Тейлор / Dylan Taylor (Stuart Wilson), Филипп Бреннинкмейер / Philippe Brenninkmeyer (DA Jones), Лэйн Стайлз / Lane Styles (Emma)-Описание: Жизнь окружного прокурора переворачивается с ног на голову, когда он оказывается вовлеченным в перестрелку и за его преступление другого человека арестовывают и обвиняют в убийстве.-Премьера (мир): 17 января 2014, ...
Рейтинг MPAA: Лицам до 17 лет обязательно присутствие взрослого-Качество: WEB-DLRip
Формат: AVI
Видео кодек: XviD
Аудио кодек: MP3/AC3
Видео: 720x304 (2.35:1), 23.976 fps, XviD, 1 590 Kbps
Аудио #1: MP3, 128 Kbps, 48.0 KHz, 2 ch, Russian
Аудио #2: AC3, 384 Kbps, 48.0 KHz, 6 ch, English-
  -

МедиаИнфо

General
Complete name                    : Razumnoe.somnenie.2014.L1.WEB-DLRip.avi
Format                           : AVI
Format/Info                      : Audio Video Interleave
File size                        : 1.40 GiB
Duration                         : 1h 31mn
Overall bit rate                 : 2 200 Kbps
Writing application              : VirtualDubMod 1.5.10.2 (build 2540/release)
Writing library                  : VirtualDubMod build 2540/release
Video
ID                               : 0
Format                           : MPEG-4 Visual
Format profile                   : Advanced [email protected]
Format settings, BVOP            : Yes
Format settings, QPel            : No
Format settings, GMC             : No warppoints
Format settings, Matrix          : Default (MPEG)
Muxing mode                      : Packed bitstream
Codec ID                         : XVID
Codec ID/Hint                    : XviD
Duration                         : 1h 31mn
Bit rate                         : 1 590 Kbps
Width                            : 720 pixels
Height                           : 304 pixels
Display aspect ratio             : 2.35:1
Frame rate                       : 23.976 fps
Color space                      : YUV
Chroma subsampling               : 4:2:0
Bit depth                        : 8 bits
Scan type                        : Progressive
Bits/(Pixel*Frame)               : 0.303
Stream size                      : 1.01 GiB (72%)
Writing library                  : XviD 64
Audio #1
ID                               : 1
Format                           : MPEG Audio
Format version                   : Version 1
Format profile                   : Layer 3
Codec ID                         : 55
Codec ID/Hint                    : MP3
Duration                         : 1h 31mn
Bit rate mode                    : Constant
Bit rate                         : 128 Kbps
Channel(s)                       : 2 channels
Sampling rate                    : 48.0 KHz
Stream size                      : 83.6 MiB (6%)
Alignment                        : Aligned on interleaves
Audio #2
ID                               : 2
Format                           : AC-3
Format/Info                      : Audio Coding 3
Mode extension                   : CM (complete main)
Codec ID                         : 2000
Duration                         : 1h 31mn
Bit rate mode                    : Constant
Bit rate                         : 384 Kbps
Channel(s)                       : 6 channels
Channel positions                : Front: L C R, Side: L R, LFE
Sampling rate                    : 48.0 KHz
Bit depth                        : 16 bits
Stream size                      : 251 MiB (17%)
Alignment                        : Split accross interleaves

Скриншоты

Создавать темы 01-Фев-2014 01:01

[Профиль]  [ЛС] 

Mercuriy

Стаж: 6 лет

Сообщений: 418

Симпатии: 100

Создавать темы 01-Фев-2014 01:19

[Профиль]  [ЛС] 

victor0778 ®

Стаж: 6 лет 9 месяцев

Сообщений: 1670

Симпатии: 142

Mercuriy, фильм хороший, а вот озвучка не удачная

Создавать темы 01-Фев-2014 02:12

[Профиль]  [ЛС] 

Mercuriy

Стаж: 6 лет

Сообщений: 418

Симпатии: 100

victor0778, Ничего страшного, спасибо за труд, заценим сюжет поближе. После того как мы на своем веку познакомились с такими талантами как Дэн94 или Хихикающий доктор наши сомнения можно было бы перефразировать в одну из мудрых пословиц "Голоса боишся, новинки несмотри")).
Если хороший контент воистину собой зацепит то можно завладеть им чуток позже размерами картинки 1920*1080-800, битрейтами видео гдето 10,0-12,0 Mbs да с хорошим 5-6ти канальным и 768 Кбсным дубляжом (желательно в нескольких актерских голосовых вариациях). Незнаю может зажрались от современных вариантов Хдшно долби сурраундных восприятий)))

Создавать темы 01-Фев-2014 02:46

[Профиль]  [ЛС] 

bobsansaba

Стаж: 3 года 11 месяцев

Сообщений: 45

Симпатии: 4

victor0778, спс 3а рели3, ждем лицу)))))

Создавать темы 01-Фев-2014 11:06

[Профиль]  [ЛС] 

dimanjon

Стаж: 5 лет 10 месяцев

Сообщений: 107

Симпатии: 9

Автору спс за релиз!

Создавать темы 01-Фев-2014 14:56

[Профиль]  [ЛС] 

Furqat_76

Стаж: 5 лет 7 месяцев

Сообщений: 24

Спасибо за релиз.отлично!

Создавать темы 01-Фев-2014 15:44

[Профиль]  [ЛС] 

asamatdinov

Стаж: 4 года 8 месяцев

Сообщений: 16

victor0778, спасибо за фильм

Создавать темы 01-Фев-2014 18:58

[Профиль]  [ЛС] 

Junkie

Стаж: 4 года 5 месяцев

Сообщений: 316

Симпатии: 21

Впервые слышу этого дублёра... и надеюсь больше не услышу. Ну и мерзкий голос

Создавать темы 03-Фев-2014 21:29

[Профиль]  [ЛС] 

Rasul

Стаж: 5 лет 9 месяцев

Сообщений: 100

Симпатии: 6

святослав арий, да он тот самый

Создавать темы 04-Фев-2014 12:40

[Профиль]  [ЛС] 

kok

Стаж: 5 лет 10 месяцев

Сообщений: 40

Симпатии: 2

как фильмец ребята??? отпишитесь

Создавать темы 04-Фев-2014 20:30

[Профиль]  [ЛС] 

sean80

Стаж: 6 лет 9 месяцев

Сообщений: 38

Симпатии: 4

За релиз спасибо, но перевод убивает. Хорошо английская дорожка есть.
Кто хочет русскую - пожалейте себя не смотрите с этой озвучкой.

Создавать темы 04-Фев-2014 21:49

[Профиль]  [ЛС] 

Xakker_xxx

Стаж: 5 лет 7 месяцев

Сообщений: 53

Симпатии: 1

Впервые слышу этого дублёра... и надеюсь больше не услышу. Ну и мерзкий голос
Да как будто он свою нос закрыл!

Создавать темы 05-Фев-2014 15:41

[Профиль]  [ЛС] 

Adilov Anvar

Стаж: 3 года 9 месяцев

Сообщений: 19

действительно фильм норм но вот с озвучкой беда

Создавать темы 07-Фев-2014 08:58

[Профиль]  [ЛС] 

xxxlll78

Стаж: 3 года 10 месяцев

Сообщений: 2

Кто не будь раздает,или нет...хотелось бы скачать но что то не как Скорости!!!

Создавать темы 07-Фев-2014 18:16

[Профиль]  [ЛС] 
Показать сообщения:    
Ответить на тему

Текущее время: 21-Ноя 13:02

Часовой пояс: UTC + 5



Вы не можете начинать темы
Вы не можете отвечать на сообщения
Вы не можете редактировать свои сообщения
Вы не можете удалять свои сообщения
Вы не можете голосовать в опросах
Вы не можете прикреплять файлы к сообщениям
Вы не можете скачивать файлы