В спальне / In The Bedroom (Тод Филд / Todd Field) [2001, драма, криминал, DVDRip-AVC] MVO + Original + Sub

Ответить на тему
 

Jeneva ®

Стаж: 5 лет 7 месяцев

Сообщений: 47

Симпатии: 70

В спальне / In the Bedroom- Год выпуска: 2001
Страна: США
Жанр: драма, криминал
Продолжительность: 02:05:35
Перевод: Профессиональный (многоголосый, закадровый)
Субтитры: Русские, Английские
Навигация по главам: есть (10-глав)
Режиссер: Тодд Филд
В ролях: Том Уилкинсон, Сисси Спейсек, Ник Стал, Мариса Томей, Уильям Мапотер, Уильям Уайз, Селия Уэстон, Карен Аллен, Фрэнк Т. Уэллс, У. Клэпэм Мюррей, Джастин Эшфорт, Терри А. Бургесс

Описание: Совсем еще мальчишка (студент колледжа) приезжает на каникулы домой и влюбляется в Натали, женщину, которая намного старше его. Это начинается, как обычный летний роман, а в конце лета они расстанутся и забудут друг друга. В это верит он сам и пытается заставить поверить своих родителей…

Качество: DVDRip
Формат: Matroska
Видео кодек: AVC
Аудио кодек: AC3
Видео: AVC; 720x572 => 768x572 @ 25.00fps; ~1586Kbps; 0,150 bpp;
Аудио №1: AC3; 6Ch; 48KHz; 16Bit; CBR; 448Kbps (MVO) [Русская]
Аудио №2: AC3; 6Ch; 48KHz; 16Bit; CBR; 448Kbps (Original) [English]
Субтитры №1: UTF-8; SRT [Russian]
Субтитры №2: UTF-8; SRT [English]

Скриншоты





MI

Format : Matroska
File size : 2.18 GiB
Duration : 2h 5mn
Overall bit rate : 2 486 Kbps
Movie name : В спальне / In the bedroom (2001) [Тод Филд / Todd Field] DVDRip by [email protected]
Encoded date : UTC 2010-07-03 10:47:24
Writing application : mkvmerge v4.1.0 ('Boiling Point') built on Jul 1 2010 14:37:28
Writing library : libebml v1.0.0 + libmatroska v1.0.0
Cover : Yes / Yes / Yes
Video
ID : 1
Format : AVC
Format/Info : Advanced Video Codec
Format profile : [email protected]
Format settings, CABAC : Yes
Format settings, ReFrames : 10 frames
Muxing mode : Container [email protected]
Codec ID : V_MPEG4/ISO/AVC
Duration : 2h 5mn
Bit rate : 1 540 Kbps
Width : 720 pixels
Height : 572 pixels
Display aspect ratio : 4:3
Frame rate : 25.000 fps
Color space : YUV
Chroma subsampling : 4:2:0
Bit depth : 8 bits
Scan type : Progressive
Bits/(Pixel*Frame) : 0.150
Stream size : 1.35 GiB (62%)
Title : AVC; 720x572 => 768x572 @ 25.00fps; ~1586Kbps
Writing library : x264 core 100 r1659kMod 57b2e56
Encoding settings : cabac=1 / ref=10 / deblock=1:-2:-1 / analyse=0x3:0x133 / me=umh / subme=10 / psy=1 / psy_rd=1.00:0.10 / mixed_ref=1 / me_range=24 / chroma_me=1 / trellis=2 / 8x8dct=1 / cqm=0 / deadzone=21,11 / fast_pskip=1 / chroma_qp_offset=-3 / threads=6 / sliced_threads=0 / nr=0 / decimate=1 / interlaced=0 / constrained_intra=0 / bframes=8 / b_pyramid=2 / b_adapt=2 / b_bias=0 / direct=1 / weightb=1 / open_gop=0 / weightp=2 / keyint=250 / keyint_min=25 / scenecut=40 / intra_refresh=0 / rc_lookahead=60 / rc=crf / mbtree=1 / crf=19.1000 / qcomp=0.70 / qpmin=10 / qpmax=51 / qpstep=4 / ip_ratio=1.40 / aq=1:1.00
Matrix coefficients : BT.470-6 System B, BT.470-6 System G, BT.601-6 625, BT.1358 625, BT.1700 625 PAL, BT.1700 625 SECAM, IEC 61966-2-4 601
Audio #1
ID : 2
Format : AC-3
Format/Info : Audio Coding 3
Mode extension : CM (complete main)
Codec ID : A_AC3
Duration : 2h 5mn
Bit rate mode : Constant
Bit rate : 448 Kbps
Channel(s) : 6 channels
Channel positions : Front: L C R, Side: L R, LFE
Sampling rate : 48.0 KHz
Stream size : 402 MiB (18%)
Title : AC3; 6Ch; 48KHz; 16Bit; CBR; 448Kbps (MVO)
Language : Russian
Audio #2
ID : 3
Format : AC-3
Format/Info : Audio Coding 3
Mode extension : CM (complete main)
Codec ID : A_AC3
Duration : 2h 5mn
Bit rate mode : Constant
Bit rate : 448 Kbps
Channel(s) : 6 channels
Channel positions : Front: L C R, Side: L R, LFE
Sampling rate : 48.0 KHz
Stream size : 402 MiB (18%)
Title : AC3; 6Ch; 48KHz; 16Bit; CBR; 448Kbps (Original)
Text #1
ID : 4
Format : UTF-8
Codec ID : S_TEXT/UTF8
Codec ID/Info : UTF-8 Plain Text
Title : UTF-8; SRT
Language : Russian
Text #2
ID : 5
Format : UTF-8
Codec ID : S_TEXT/UTF8
Codec ID/Info : UTF-8 Plain Text
Title : UTF-8; SRT
Menu
00:00:00.000 : ru:Глава 1
00:12:17.600 : ru:Глава 2
00:25:22.080 : ru:Глава 3
00:38:45.120 : ru:Глава 4
00:49:05.760 : ru:Глава 5
00:59:37.520 : ru:Глава 6
01:15:49.040 : ru:Глава 7
01:36:00.080 : ru:Глава 8
01:46:55.120 : ru:Глава 9
02:01:43.400 : ru:Глава 10

Создавать темы 01-Фев-2014 15:23

[Профиль]  [ЛС] 
Показать сообщения:    
Ответить на тему

Текущее время: 22-Сен 14:58

Часовой пояс: UTC + 5



Вы не можете начинать темы
Вы не можете отвечать на сообщения
Вы не можете редактировать свои сообщения
Вы не можете удалять свои сообщения
Вы не можете голосовать в опросах
Вы не можете прикреплять файлы к сообщениям
Вы не можете скачивать файлы