Чудеса Вселенной / Wonders of the Universe (Крис Холт) [2011 г., Документальный, HDTVRip]

Ответить на тему
 

baho ®

Стаж: 4 года 2 месяца

Сообщений: 37

Симпатии: 3

-- -Чудеса Вселенной / Wonders of the Universe Год выпуска: 2011
Жанр: Документальный
Продолжительность: 4х ~ 00:58:00
Режиссер: Крис Холт
В ролях: Брайан Кокс, Андрю Коэн-Описание: Кто мы? Почему мы здесь? Откуда мы пришли? Это самые фундаментальные и извечные вопросы которые мы можем задать. И это неотъемлемая часть человеческой природы, которая стремится найти на них ответы. Мы можем проследить нашу родословную на протяжении сотен тысяч лет до самой зари человечества. Но на самом деле наша история простирается гораздо дальше: Она начинается с начала вселенной.
Наша Вселенная зародилась примерно 13,7 миллиардов лет назад, и сегодня она наполнена более чем 100 миллиардами галактик. И каждая из них содержит сотни миллиардов звезд и захватывающие разнообразие чудес. В этом новом революционном документальном цикле профессор Брайан Кокс рассказывает эпическую историю нашей Вселенной, тем самым показывая, что мы её неотъемлемая часть.-Качество: HDRip
Формат: AVI
Видео кодек: XviD
Аудио кодек: MP3
Видео: Xvid 720x400 25fps Bit rate: 1 550 Kbps
Аудио: MP3 48000Hz stereo 128kbps-

Скриншоты


Список серии

1 серия. Cудьба / Destiny
2 серия. Звездная пыль / Stardust
3 серия. Падение / Falling
4 серия. Посланники / Messengers

Media Info

General
Complete name : Wonders of the Universe
Format : AVI
Format/Info : Audio Video Interleave
File size : 701 MiB
Duration : 58mn 3s
Overall bit rate : 1 688 Kbps
Writing application : VirtualDubMod 1.5.10.2 (build 2540/release)
Writing library : VirtualDubMod build 2540/release
Video
ID : 0
Format : MPEG-4 Visual
Format profile : Advanced [email protected]
Format settings, BVOP : 4
Format settings, QPel : No
Format settings, GMC : No warppoints
Format settings, Matrix : Default (MPEG)
Codec ID : XVID
Codec ID/Hint : XviD
Duration : 58mn 3s
Bit rate : 1 550 Kbps
Width : 720 pixels
Height : 400 pixels
Display aspect ratio : 16:9
Frame rate : 25.000 fps
Color space : YUV
Chroma subsampling : 4:2:0
Bit depth : 8 bits
Scan type : Progressive
Compression mode : Lossy
Bits/(Pixel*Frame) : 0.215
Stream size : 643 MiB (92%)
Writing library : XviD 1.2.1 (UTC 2008-12-04)
Audio
ID : 1
Format : MPEG Audio
Format version : Version 1
Format profile : Layer 3
Codec ID : 55
Codec ID/Hint : MP3
Duration : 58mn 3s
Bit rate mode : Constant
Bit rate : 128 Kbps
Channel count : 2 channels
Sampling rate : 48.0 KHz
Compression mode : Lossy
Stream size : 53.1 MiB (8%)
Alignment : Aligned on interleaves
Interleave, duration : 40 ms (1.00 video frame)
Interleave, preload duration : 504 ms
Writing library : LAME3.98r
Encoding settings : -m s -V 4 -q 2 -lowpass 17 -b 128

Создавать темы 01-Фев-2014 20:31

[Профиль]  [ЛС] 

тролль

Стаж: 4 года 5 месяцев

Сообщений: 49

Симпатии: 2

а это теперь проглотите ?
http://tas-ix.net/viewtopic.php?t=79143

Создавать темы 02-Фев-2014 06:56

[Профиль]  [ЛС] 

mongoloid9

Стаж: 5 лет 6 месяцев

Сообщений: 172

Симпатии: 12

baho, такими темпами месяц будете раздавать..

Создавать темы 06-Фев-2014 07:22

[Профиль]  [ЛС] 

mongoloid9

Стаж: 5 лет 6 месяцев

Сообщений: 172

Симпатии: 12

Арматура Железкин,просто у автора сразу несколько раздач..и скорость видимо мизер.. с такой скоростью раздачи более 100 мб создавать - запретил бы.. ток людей мучить

Создавать темы 06-Фев-2014 20:46

[Профиль]  [ЛС] 

DonCorleone

Стаж: 5 лет 11 месяцев

Сообщений: 17

skorost dayte

Создавать темы 25-Фев-2014 22:03

[Профиль]  [ЛС] 
Показать сообщения:    
Ответить на тему

Текущее время: 13-Дек 23:45

Часовой пояс: UTC + 5



Вы не можете начинать темы
Вы не можете отвечать на сообщения
Вы не можете редактировать свои сообщения
Вы не можете удалять свои сообщения
Вы не можете голосовать в опросах
Вы не можете прикреплять файлы к сообщениям
Вы не можете скачивать файлы