Жизнь в микромире BBC / BBC Life in the undergrowth (Дэвид Аттенборо) [2005 г., Документальный, DVDRip]

Ответить на тему
 

baho ®

Стаж: 3 года 10 месяцев

Сообщений: 37

Симпатии: 3

--Жизнь в микромире BBC / BBC Life in the undergrowth

Год выпуска: 2005
Жанр: Документальный
Продолжительность: 5 х ~ 00:50:00
Режиссер: Дэвид Аттенборо
В ролях: Дэвид Аттенборо-Описание: Дэвид Аттенборо и компания ВВС приглашают зрителей в другой мир, чужой и даже враждебный человеку. Этот мир существует не на других планетах, он совсем рядом - у нас под ногами. Это мир насекомых. Целая Вселенная со своими гигантами и карликами, хищниками и жертвами. Здесь жизнь, обычно не заметная человеческому глазу, находится в постоянном движении и не замирает ни на секунду. В любую минуту на парковой дорожке, на крыльце вашего дома или даже на вашей кухне может развернуться жестокая битва непримиримых врагов мира насекомых. В повседневной жизни насекомые окружают нас повсюду. Миллионы лет мы живем с ними бок о бок. В мире насекомых размер не имеет значения, даже самый маленький обитатель микромира может быть жесток и кровожаден, как самый свирепый из известных нам хищников. К тому же не стоит забывать, что на одного человека приходится 200 миллионов насекомых.
Новые технологии микросъемки в сочетании с передовыми компьютерными технологиями позволят увидеть фантастические перспективы - этого миниатюрного, но в тоже время огромного мира. А Дэвид Аттенборо в своем неподражаемом стиле познакомит нас с многими из его удивительных обитателей, с их жизнью, повадками и причудами.-Качество: DVDRip
Формат: AVI
Видео кодек: XviD
Аудио кодек: MP3
Видео: Xvid 696x384 25fps Bit rate: 1 831 Kbps
Аудио: MP3 48000Hz stereo 130kbps

Скриншоты


Список серий

1. Вторжение на сушу. (Invasion to the land)
2. Взмывая в высь. (Taking to the air)
3. Прядильшики шёлка. (The silk spinners)
4. Близкие отношения. (Intimate relations)
5. Высокоразвитые сообщества. (Supersocieties)

Media Info

General
Complete name : BBC_Life_in_the_undergrowth_1_Vtorjenie_na_sushu_(Invasion.to.the.land).avi
Format : AVI
Format/Info : Audio Video Interleave
File size : 698 MiB
Duration : 49mn 27s
Overall bit rate mode : Variable
Overall bit rate : 1 974 Kbps
Movie name : BBC_Life_in_the_undergrowth_1_Invasion_to_the_land
Movie name/Url : www.senatorinfo.com
Written by : David Attenborough
Encoded by : DarkGhost
Production studio : BBC
Genre : Documentary
Law rating : не проходило оценку
Writing application : VirtualDubMod 1.5.10.2 (build 2540/release) VirtualDubMod build 2540/release
Video
ID : 0
Format : MPEG-4 Visual
Format profile : Advanced [email protected]
Format settings, BVOP : Yes
Format settings, QPel : No
Format settings, GMC : No warppoints
Format settings, Matrix : Default (H.263)
Codec ID : XVID
Codec ID/Hint : XviD
Duration : 49mn 27s
Bit rate : 1 831 Kbps
Width : 696 pixels
Height : 384 pixels
Display aspect ratio : 16:9
Frame rate : 25.000 fps
Color space : YUV
Chroma subsampling : 4:2:0
Bit depth : 8 bits
Scan type : Progressive
Compression mode : Lossy
Bits/(Pixel*Frame) : 0.274
Stream size : 647 MiB (93%)
Writing library : XviD 1.2.0SMP (UTC 2006-01-08)
Audio
ID : 1
Format : MPEG Audio
Format version : Version 1
Format profile : Layer 3
Mode : Joint stereo
Mode extension : MS Stereo
Codec ID : 55
Codec ID/Hint : MP3
Duration : 49mn 27s
Bit rate mode : Variable
Bit rate : 128 Kbps
Channel count : 2 channels
Sampling rate : 48.0 KHz
Compression mode : Lossy
Stream size : 46.2 MiB (7%)
Alignment : Aligned on interleaves
Interleave, duration : 24 ms (0.60 video frame)
Interleave, preload duration : 508 ms
Language : Russian
--

Создавать темы 01-Фев-2014 21:39

[Профиль]  [ЛС] 
Показать сообщения:    
Ответить на тему

Текущее время: 22-Авг 14:13

Часовой пояс: UTC + 5



Вы не можете начинать темы
Вы не можете отвечать на сообщения
Вы не можете редактировать свои сообщения
Вы не можете удалять свои сообщения
Вы не можете голосовать в опросах
Вы не можете прикреплять файлы к сообщениям
Вы не можете скачивать файлы