Во имя короля 3 / In the Name of the King III ( Уве Болл) [2014, фэнтези, боевик, драма, приключения, DVDRip ]

Страницы :  1, 2, 3  След.

Ответить на тему
 

Каротажник ®

Стаж: 4 года 1 месяц

Сообщений: 195

Симпатии: 211

Во имя короля 3 /In the Name of the King III

Год выпуска: 2014
Страна: Канада, Болгария
Жанр: фэнтези, боевик, драма, приключения
Продолжительность: 01:25:05
Перевод: Любительское одноголосное-Режиссёр: Уве Болл
В ролях: Доминик Пёрселл, Ралика Паскалева, Башар Рахаль, Николай Сотиров, Петра Гочева, Йоан Михайлов, Марина Дакова, Фахрадин Фахрадинов, Анатолий Нечев, Татьяна Педерсен-
В далёком королевстве появился странный человек, одетый не по этой эпохи и постоянно говоривший, что он не из этих мест. Так начинается третья, финальная часть данной трилогии. Мир в котором нас ожидает путешествия во времени и пространстве, сказочные существа, великие сражения и невероятные подвиги людей, мир разнообразной магии и невероятных чудес. И мы сможем окунуться и увидеть этот манящий мир...-
Качество: DVDRip
Формат: AVI
Видео: XviD, 2038 kb/s, 720x400
Аудио: MP3, 256 kb/s (2 ch)

Media Info

Format : AVI
Format/Info : Audio Video Interleave
File size : 1.37 GiB
Duration : 1h 25mn
Overall bit rate : 2 304 Kbps
Writing application : VirtualDubMod 1.5.10.2 (build 2540/release)
Writing library : VirtualDubMod build 2540/release
Video #0
ID : 0
Format : MPEG-4 Visual
Format profile : Advanced [email protected]
Format settings, BVOP : 2
Format settings, QPel : No
Format settings, GMC : No warppoints
Format settings, Matrix : Default (MPEG)
Codec ID : XVID
Codec ID/Hint : XviD
Duration : 1h 25mn
Bit rate : 2 039 Kbps
Width : 720 pixels
Height : 400 pixels
Display aspect ratio : 16:9
Frame rate : 23.976 fps
Color space : YUV
Chroma subsampling : 4:2:0
Bit depth : 8 bits
Scan type : Progressive
Compression mode : Lossy
Bits/(Pixel*Frame) : 0.295
Stream size : 1.21 GiB (88%)
Writing library : XviD 1.2.1 (UTC 2008-12-04)
Audio #1
ID : 1
Format : MPEG Audio
Format version : Version 1
Format profile : Layer 3
Codec ID : 55
Codec ID/Hint : MP3
Duration : 1h 25mn
Bit rate mode : Constant
Bit rate : 256 Kbps
Channel(s) : 2 channels
Sampling rate : 44.1 KHz
Compression mode : Lossy
Stream size : 156 MiB (11%)
Alignment : Split accross interleaves
Interleave, duration : 42 ms (1.00 video frame)
Interleave, preload duration : 500 ms

Скриншоты


Создавать темы 02-Фев-2014 07:00

[Профиль]  [ЛС] 

MYCJIuM

Стаж: 6 лет 11 месяцев

Сообщений: 3

Как фильм?
Опишетесь пожалуйста . . . .

Создавать темы 02-Фев-2014 09:31

[Профиль]  [ЛС] 

xulita

Стаж: 6 лет 9 месяцев

Сообщений: 24

Симпатии: 5

экскремент......по постеру уже видно.....что самое дорогое, на что они потратились,так это на сам постер....а представляете что в самом фильме творится

Создавать темы 02-Фев-2014 11:27

[Профиль]  [ЛС] 

Honda

Стаж: 7 лет

Сообщений: 93

Симпатии: 1

Режиссёр: Уве Болл Этим все сказано!

Создавать темы 02-Фев-2014 11:35

[Профиль]  [ЛС] 

Sulaco

Стаж: 4 года 10 месяцев

Сообщений: 29

это ведь Уве Болл....
и кто ему деньги дает на фильмы...

Создавать темы 02-Фев-2014 12:57

[Профиль]  [ЛС] 

King

Стаж: 3 года 9 месяцев

Сообщений: 1

стоит смотреть?

Создавать темы 02-Фев-2014 14:18

[Профиль]  [ЛС] 

Tiger Fors

Стаж: 5 лет 7 месяцев

Сообщений: 19

4 скрин прикольный на мою кошку похож она тоже так язык вытаскивает

Создавать темы 02-Фев-2014 16:17

[Профиль]  [ЛС] 

hard92

Стаж: 5 лет

Сообщений: 60

с первого скрина подумал что какой то фильм для взрослых, но на втором скрине спустился ниже и написал этот коммент.

Создавать темы 02-Фев-2014 18:12

[Профиль]  [ЛС] 

Furqat_76

Стаж: 5 лет 7 месяцев

Сообщений: 24

Самое ценное здес-это актер Доминик Пёрселл из сериала "Побег" а так на +1)

Создавать темы 02-Фев-2014 18:44

[Профиль]  [ЛС] 

abut

Стаж: 4 года

Сообщений: 27

Симпатии: 7

О нет! Только не Уве Болл...

Создавать темы 02-Фев-2014 19:00

[Профиль]  [ЛС] 

titan3600

Стаж: 5 лет

Сообщений: 17

Симпатии: 1

Любительское фильм

Создавать темы 02-Фев-2014 19:20

[Профиль]  [ЛС] 

9999studio

Стаж: 3 года 10 месяцев

Сообщений: 2

skorst day plzzzzzzzzzzzzzzzzzzzzzz

Создавать темы 02-Фев-2014 22:42

[Профиль]  [ЛС] 

sharp_ssb

Стаж: 5 лет 2 месяца

Сообщений: 43

наверно это норм фильм если сняли 3ю часть, хотя постер и скрины говорят об обратном.

Создавать темы 02-Фев-2014 23:03

[Профиль]  [ЛС] 

nyted

Стаж: 5 лет 7 месяцев

Сообщений: 33

Симпатии: 9

by это фильм для детей

Создавать темы 02-Фев-2014 23:04

[Профиль]  [ЛС] 

stan_uz

Стаж: 4 года 5 месяцев

Сообщений: 22

И так Уве Болл открывает список трэш фильмов на 2014 год

Создавать темы 02-Фев-2014 23:04

[Профиль]  [ЛС] 
Показать сообщения:    
Ответить на тему

Текущее время: 19-Ноя 19:24

Часовой пояс: UTC + 5



Вы не можете начинать темы
Вы не можете отвечать на сообщения
Вы не можете редактировать свои сообщения
Вы не можете удалять свои сообщения
Вы не можете голосовать в опросах
Вы не можете прикреплять файлы к сообщениям
Вы не можете скачивать файлы