Спис и Глиструп. Секс, наркотики и налогообложение / Spies & Glistrup (Кристоффер Боэ) [2013 г., драма, биография, DVDRip]

Ответить на тему
 

Suxrob89 ®

Стаж: 7 лет 2 месяца

Сообщений: 933

Симпатии: 564

-Спис и Глиструп. Секс, наркотики и налогообложение / Spies & Glistrup- Год выпуска: 2013
Страна: Дания
Жанр: драма, биография
Продолжительность: 01:55:14
Перевод: Любительское (многоголосое) [Точка Zрения]-Режиссер: Кристоффер Боэ-В ролях: Йохан Филип Асбек, Николас Бро, Еспер Кристенсен, Якоб Хёйлев Ёргенсон, Каспер Лайснер, Трине Паллесен, Fie Aarestrup, Anna Agerbak, Ditte Arnth, Linda Avanu-Описание: Первый — магнат-мультимиллиардер, второй — юрист, способный найти лазейку в любом контракте и правовом кодексе. Спис — плейбой, гедонист, либертин, принимавший журналистов в окружении обнаженных юниц и способный зайти в клетку с разъяренной гориллой без штанов, с эрегированным членом наперевес. Глиструп — одутловатый зануда, равнодушный к вечеринкам и всю долгую жизнь хранивший верность жене. С его помощью в 1965-м году Спис провернул грандиозную авантюрную сделку, став единственным владельцем турагентства и авиакомпании, демократизировавшей перелеты. Эта сделка положила начало и многолетней дружбе двух полярных созданий, чьи выходки провоцировали общество на протяжении трех десятилетий.- -Качество: DVDRip
Формат: AVI
Видео кодек: XviD
Аудио кодек: AC3
Видео: 720x304, 1 427 Кбит/сек, 24,000 кадра/сек
Аудио: АС3, 192 Кбит/сек, 2 канала, 48,0 КГц

Media info

E:\Narkotiki.i.nalogooblozhenie.2013.DVDRip.avi
General
Complete name : E:\Narkotiki.i.nalogooblozhenie.2013.DVDRip.avi
Format : AVI
Format/Info : Audio Video Interleave
Format profile : OpenDML
Format settings : rec
File size : 1.31 GiB
Duration : 1h 55mn
Overall bit rate : 1 625 Kbps
Writing application : AVI-Mux GUI 1.17.8.3, Feb 16 201019:42:50
Video #0
ID : 0
Format : MPEG-4 Visual
Format profile : Advanced [email protected]
Format settings, BVOP : 1
Format settings, QPel : No
Format settings, GMC : No warppoints
Format settings, Matrix : Default (MPEG)
Codec ID : XVID
Codec ID/Hint : XviD
Duration : 1h 55mn
Bit rate : 1 427 Kbps
Width : 720 pixels
Height : 304 pixels
Display aspect ratio : 2.35:1
Frame rate : 24.000 fps
Color space : YUV
Chroma subsampling : 4:2:0
Bit depth : 8 bits
Scan type : Progressive
Compression mode : Lossy
Bits/(Pixel*Frame) : 0.272
Stream size : 1.15 GiB (88%)
Writing library : XviD 1.2.1 (UTC 2008-12-04)
Audio #1
ID : 1
Format : AC-3
Format/Info : Audio Coding 3
Mode extension : CM (complete main)
Format settings, Endianness : Big
Codec ID : 2000
Duration : 1h 55mn
Bit rate mode : Constant
Bit rate : 192 Kbps
Channel count : 2 channels
Channel positions : Front: L R
Sampling rate : 48.0 KHz
Bit depth : 16 bits
Compression mode : Lossy
Stream size : 158 MiB (12%)
Alignment : Aligned on interleaves
Interleave, duration : 64 ms (1.54 video frames)
Interleave, preload duration : 192 ms
Title : TZTagil Êàíàë ïðàâèëüíûõ ïåðåâîäîâ Òî÷êà Zðåíèÿ

Скриншоты



Последний раз редактировалось: Suxrob89 (2014-02-02 16:23), всего редактировалось 1 раз

Создавать темы 02-Фев-2014 08:34

[Профиль]  [ЛС] 

SHAGGY

Стаж: 4 года 3 месяца

Сообщений: 9

Присутствие в название фильма "Секс" даёт быстрое пополнение личеров ag ag ag

Создавать темы 02-Фев-2014 12:48

[Профиль]  [ЛС] 

doston_x

Стаж: 4 года 5 месяцев

Сообщений: 22

Симпатии: 1

и эта фотка тоже)

Создавать темы 02-Фев-2014 13:27

[Профиль]  [ЛС] 

Agness

Стаж: 5 лет 5 месяцев

Сообщений: 208

Симпатии: 10

нудятину надо как-то преукрасить

!

нацайника, секаса осена нахватаетта

Создавать темы 02-Фев-2014 18:51

[Профиль]  [ЛС] 

Libra

Стаж: 4 года 7 месяцев

Сообщений: 20

Симпатии: 1

150 личеров 1 сид :) долго качать вам придется :)

Создавать темы 02-Фев-2014 22:44

[Профиль]  [ЛС] 

13werewolf13

Стаж: 5 лет 5 месяцев

Сообщений: 19

Симпатии: 1

Где народ, какого №%:?** никто не раздаёт. Задо все горазды запросами забрасывать!!!!!

Создавать темы 04-Фев-2014 00:40

[Профиль]  [ЛС] 

Jokero

Стаж: 6 лет 6 месяцев

Сообщений: 176

Симпатии: 4

мусор а не фильм

Создавать темы 05-Фев-2014 19:15

[Профиль]  [ЛС] 

marvel

Стаж: 6 лет 8 месяцев

Сообщений: 50

Симпатии: 1

фильм какой отпишитесь ????

Создавать темы 07-Фев-2014 00:39

[Профиль]  [ЛС] 

blackshark

Стаж: 6 лет 10 месяцев

Сообщений: 260

Симпатии: 23

Фильм не очем...

Создавать темы 26-Фев-2014 01:31

[Профиль]  [ЛС] 

4niko

Стаж: 6 лет 11 месяцев

Сообщений: 78

Симпатии: 11

http://uzbekkino.uz/uz/basik/uzbekiston-khududida-k...-filmlar-ruyhati
1292
"Спис Глиструп. Секс, наркотики и налогообложение / Spies & Glistrup"
Рекомендация к просмотру получена.

Создавать темы 10-Мар-2015 18:25

[Профиль]  [ЛС] 
Показать сообщения:    
Ответить на тему

Текущее время: 23-Окт 20:21

Часовой пояс: UTC + 5



Вы не можете начинать темы
Вы не можете отвечать на сообщения
Вы не можете редактировать свои сообщения
Вы не можете удалять свои сообщения
Вы не можете голосовать в опросах
Вы не можете прикреплять файлы к сообщениям
Вы не можете скачивать файлы