Паганини: Скрипач Дьявола / The Devil's Violinist (Бернард Роуз / Bernard Rose) [2013 г., драма, биография, WEB-DLRip] [Лицензия (iTunes)]

Ответить на тему
 

Suxrob89 ®

Стаж: 7 лет

Сообщений: 933

Симпатии: 564

--Паганини: Скрипач Дьявола / The Devil's Violinist-- Информация о фильме:
Страна: Германия, Италия
Жанр: драма, биография
Год выпуска: 2013
Продолжительность: 01:57:01
Перевод: Профессиональный (дублированный)
Cубтитры: нет
Оригинальная аудиодорожка: нет--Режиссер: Бернард Роуз / Bernard Rose--В ролях: Дэвид Гэрретт, Джаред Харрис, Джоэли Ричардсон, Кристиан МакКэй, Вероника Феррес, Хельмут Бергер, Оливия д’Або, Андреа Дэк--Описание: Имя скрипача Никколо Паганини еще при жизни стало легендой. Что не удивительно, ведь его непревзойденный талант покорил сначала Париж, потом всю Европу, а затем и весь мир. Сама личность Паганини, окутанная ореолом мистики и таинственности, неизбежно привела к возникновению самых разнообразных слухов. Среди них была и уверенность в том, что он продал душу дьяволу, чтобы обрести свой талант. Слава и развращает, и мучает музыканта, вино и опиум приносят лишь временное утешение, и все больше ощущается странная всепоглощающая пустота... Во время гастролей в Лондоне Паганини встречает девушку с ангельским голосом и чистой душой, которую, казалось, ему было суждено повстречать. Но сможет ли человек, играющий на дьявольской скрипке, познать счастье? Или за дар придется расплачиваться единственной любовью?--Рейтинг:
 --Файл:
Качество видео: WEB-DLRip [Рип с WEB-DLRip 720p]
Формат видео: AVI
Видео: 720x304 (2.37:1), 25 fps, XviD build 50 ~1388 kbps avg, 0.25 bit/pixel
Аудио: 48 kHz, AC3 Dolby Digital, 3/2 (L,C,R,l,r) + LFE ch, ~384 kbps----

MediaInfo

Общее
Полное имя : K:\Paganini.Skripach.Diavola.2013.D.WEB-DLRip.1.46Gb.avi
Формат : AVI
Формат/Информация : Audio Video Interleave
Размер файла : 1,46 Гбайт
Продолжительность : 1 ч. 57 м.
Общий поток : 1783 Кбит/сек
Программа кодирования : VirtualDubMod 1.5.10.2 (build 2540/release)
Библиотека кодирования : VirtualDubMod build 2540/release
Видео
Идентификатор : 0
Формат : MPEG-4 Visual
Профиль формата : Advanced [email protected]
Параметр BVOP формата : 2
Параметр QPel формата : Нет
Параметр GMC формата : Без точки перехода
Параметр матрицы формата : Выборочная
Идентификатор кодека : XVID
Идентификатор кодека/Подсказка : XviD
Продолжительность : 1 ч. 57 м.
Битрейт : 1389 Кбит/сек
Ширина : 720 пикселей
Высота : 304 пикселя
Соотношение сторон : 2,35:1
Частота кадров : 25,000 кадров/сек
Цветовое пространство : YUV
Субдискретизация насыщенности : 4:2:0
Битовая глубина : 8 бит
Тип развёртки : Прогрессивная
Метод сжатия : С потерями
Бит/(Пиксели*Кадры) : 0.254
Размер потока : 1,14 Гбайт (78%)
Библиотека кодирования : XviD 1.2.1 (UTC 2008-12-04)
Аудио
Идентификатор : 1
Формат : AC-3
Формат/Информация : Audio Coding 3
Расширение режима : CM (complete main)
Параметр Endianness формата : Big
Идентификатор кодека : 2000
Продолжительность : 1 ч. 57 м.
Вид битрейта : Постоянный
Битрейт : 384 Кбит/сек
Каналы : 6 каналов
Расположение каналов : Front: L C R, Side: L R, LFE
Частота : 48,0 КГц
Битовая глубина : 16 бит
Метод сжатия : С потерями
Размер потока : 322 Мбайт (22%)
Выравнивание : Разделение по промежуткам
Продолжительность промежутка : 40 мс. (1,00 видеокадр)
Время предзагрузки промежутка : 500 мс.

Скриншот c названием фильма

Скриншоты







Последний раз редактировалось: Suxrob89 (2014-02-02 13:32), всего редактировалось 2 раз(а)

Создавать темы 02-Фев-2014 09:59

[Профиль]  [ЛС] 

Иви

Стаж: 5 лет 7 месяцев

Сообщений: 688

Симпатии: 65

шапку подправил

Создавать темы 02-Фев-2014 12:50

[Профиль]  [ЛС] 

Jnec

Стаж: 4 года 10 месяцев

Сообщений: 165

Спасибо.

Создавать темы 06-Фев-2014 10:42

[Профиль]  [ЛС] 

dilya1997

Стаж: 4 года 5 месяцев

Сообщений: 6

Симпатии: 1

качество хорошее? просто я не совсем разбираюсь в разделе медиа файл ну и просто файл

Создавать темы 07-Мар-2014 22:01

[Профиль]  [ЛС] 

sprut66

Стаж: 4 года 6 месяцев

Сообщений: 51

Симпатии: 5

dilya1997, смотри чтобы видео было 720 и перевод не ОДноголосый и тд.

Создавать темы 02-Сен-2014 15:48

[Профиль]  [ЛС] 

D.J. FoX

Стаж: 6 лет 4 месяца

Сообщений: 45

Симпатии: 1

Suxrob89, Народ дайте скорости плиз

Создавать темы 18-Дек-2014 20:46

[Профиль]  [ЛС] 

Александр Гузов

Стаж: 4 года 7 месяцев

Сообщений: 112

Симпатии: 6

ни как не могу докачать 7 процентов. сидеров вроде 13 челов, а качка стоит на нуле( малость пните торрент, все раздающие;)

Создавать темы 03-Янв-2015 21:34

[Профиль]  [ЛС] 
Показать сообщения:    
Ответить на тему

Текущее время: 22-Авг 04:55

Часовой пояс: UTC + 5



Вы не можете начинать темы
Вы не можете отвечать на сообщения
Вы не можете редактировать свои сообщения
Вы не можете удалять свои сообщения
Вы не можете голосовать в опросах
Вы не можете прикреплять файлы к сообщениям
Вы не можете скачивать файлы