Зов крови / Lost Girl / Сезон: 4 полный / Серии: 1-13 из 13 (Джон Фоусет) [2013 г., Фэнтези, криминал, WEB-DLRip] DVO [NewStudio] + Original

Ответить на тему
 

saidali ®

Стаж: 5 лет 8 месяцев

Сообщений: 868

Симпатии: 554

-Зов крови / Lost Girl-Полный 4 сезон-- Год выпуска: 2013
Страна: США
Жанр: Фэнтези, криминал
Продолжительность: 00:44:00
Перевод: Профессиональный (двухголосый, закадровый) NewStudio-Режиссер: Джон Фоусет-В ролях: Анна Силк, Кристен Холден-Рид, Ксения Соло, Ричард Хоуланд, К.К. Коллинз, Зои Палмер-Описание: Бо — суккуб. Выросшая в человеческой семье она не знала о своей истинной природе, считая себя фриком, а неумение контролировать сверхъестественный голод сделало ее одинокой беглянкой, оставляющей после себя череду трупов. Все меняется, когда Бо попадает в поле зрения кланов Фэйри, объяснивших ей кто она. Не желая выбирать между кланами Света и Тьмы, Бо решает занять сторону людей. Ей помогают юная русская воровка Кензи, детектив-оборотень Дайсон и доктор Лорен, занимающаяся изучением Фэйри.-Качество: WEB-DLRip
Формат: AVI
Видео кодек: XviD
Аудио кодек: MP3
Видео: 1465 kbps, 720x400
Аудио: Русский / Английский: MP3, 128 kb/s, 2 ch
- -

Скриншоты

Media Info

General
Complete name : E:\Зов крови (Сезон 4) NewStudio\Lost.Girl.s04e01.HDTVRip.NewStudio.TV.avi
Format : AVI
Format/Info : Audio Video Interleave
File size : 549 MiB
Duration : 44mn 13s
Overall bit rate : 1 736 Kbps
Writing application : VirtualDubMod 1.5.10.2 (build 2540/release)
Writing library : VirtualDubMod build 2540/release
Video
ID : 0
Format : MPEG-4 Visual
Format profile : Advanced [email protected]
Format settings, BVOP : 2
Format settings, QPel : No
Format settings, GMC : No warppoints
Format settings, Matrix : Default (MPEG)
Codec ID : XVID
Codec ID/Hint : XviD
Duration : 44mn 13s
Bit rate : 1 466 Kbps
Width : 720 pixels
Height : 400 pixels
Display aspect ratio : 16:9
Frame rate : 23.976 fps
Color space : YUV
Chroma subsampling : 4:2:0
Bit depth : 8 bits
Scan type : Progressive
Compression mode : Lossy
Bits/(Pixel*Frame) : 0.212
Stream size : 464 MiB (84%)
Writing library : XviD 64
Audio #1
ID : 1
Format : MPEG Audio
Format version : Version 1
Format profile : Layer 3
Mode : Joint stereo
Mode extension : MS Stereo
Codec ID : 55
Codec ID/Hint : MP3
Duration : 44mn 13s
Bit rate mode : Constant
Bit rate : 128 Kbps
Channel(s) : 2 channels
Sampling rate : 48.0 KHz
Compression mode : Lossy
Stream size : 40.5 MiB (7%)
Alignment : Aligned on interleaves
Interleave, duration : 42 ms (1.00 video frame)
Interleave, preload duration : 504 ms
Audio #2
ID : 2
Format : MPEG Audio
Format version : Version 1
Format profile : Layer 3
Mode : Joint stereo
Mode extension : MS Stereo
Codec ID : 55
Codec ID/Hint : MP3
Duration : 44mn 13s
Bit rate mode : Constant
Bit rate : 128 Kbps
Channel(s) : 2 channels
Sampling rate : 48.0 KHz
Compression mode : Lossy
Stream size : 40.5 MiB (7%)
Alignment : Aligned on interleaves
Interleave, duration : 42 ms (1.00 video frame)
Interleave, preload duration : 504 ms

Раздача ведётся путём добавления новых серий

Раздача ведётся путём добавления новых серий; при каждом добавлении создаётся новый торрент. Чтобы начать докачку новой серии, пользователям необходимо сделать следующее:
(1) остановить скачивание,
(2) удалить старый торрент у себя из клиента (старые серии удалять не надо),
(3) скачать новый торрент и запустить его у себя в клиенте вместо старого, при этом указать клиенту путь в старую папку куда и должно происходить скачивание новых серий.
Ваш клиент при этом должен произвести хеширование (проверку) старой папки (если не производит сам - помогите ему сделать это), и будет докачивать только те серии которых у вас ещё нет. Старые серии при этом не удаляются, а продолжают раздаваться!
Eсли вы уже удалили старые серии, то предотвратить повторную закачку старых серий можно, отжав галочку в соответствующих местах при запуске нового торрента. По возможности, желательно не удалять старые серии как можно дольше чтобы релизёр не столько продолжал
раздавать старые серии, а смог сконцентрироваться на новых.

График выхода новых серый в оригинале

4.01. 10.11.2013 Потеря памяти (In Memoriam)
4.02. 17.11.2013 Школа Спящей Красавицы (Sleeping Beauty School)

4.03. 24.11.2013 Любовники. В разлуке (Lovers. Apart)
4.04. 01.12.2013 Turn to Stone
4.05. 08.12.2013 Let the Dark Times Roll
4.06. 15.12.2013 Of All the Gin Joints
4.07.
4.08.
4.09.
4.10.
4.11.
4.12.
4.13.


Последний раз редактировалось: saidali (2014-03-04 21:05), всего редактировалось 3 раз(а)

Создавать темы 02-Фев-2014 17:58

[Профиль]  [ЛС] 

saidali ®

Стаж: 5 лет 8 месяцев

Сообщений: 868

Симпатии: 554

Создавать темы 17-Фев-2014 09:36

[Профиль]  [ЛС] 

saidali ®

Стаж: 5 лет 8 месяцев

Сообщений: 868

Симпатии: 554

Создавать темы 26-Фев-2014 23:16

[Профиль]  [ЛС] 

saidali ®

Стаж: 5 лет 8 месяцев

Сообщений: 868

Симпатии: 554

Финал сезона

Создавать темы 26-Фев-2014 23:17

[Профиль]  [ЛС] 

GRIMM

Стаж: 6 лет 9 месяцев

Сообщений: 811

Симпатии: 172

Народ нормально раздавать будем

Создавать темы 03-Мар-2014 09:54

[Профиль]  [ЛС] 
Показать сообщения:    
Ответить на тему

Текущее время: 23-Окт 04:01

Часовой пояс: UTC + 5



Вы не можете начинать темы
Вы не можете отвечать на сообщения
Вы не можете редактировать свои сообщения
Вы не можете удалять свои сообщения
Вы не можете голосовать в опросах
Вы не можете прикреплять файлы к сообщениям
Вы не можете скачивать файлы