Marcus Miller Scoop ohne Filter [1994 г., JAZZ, DVDRip]

Ответить на тему
 

arturtairov ®

Стаж: 5 лет 3 месяца

Сообщений: 79

Симпатии: 5

Marcus Miller Scoop ohne Filter
Год выпуска: 1994
Страна: U.S.A
Жанр: JAZZ
Продолжительность: 56m39s
Качество: DVDRip
Формат: MPEG
Видео кодек: Другой MPEG4
Аудио кодек: M4A (tracks)
Описание:Ещё один концерт посвященный любителям джазовой музыки, и просто профессионального исполнения.
О музыканте: Маркус Миллер Julian Marcus Miller
Дата рождения 14 июня 1959 (54 года)
Место рождения Бруклин, Нью-Йорк
Годы активности 1975 - наши дни
Страна Flag of the United States.svg США
Профессии бас-гитарист, кларнетист, бас-кларнетист, саксофонист, вокалист, композитор, продюсер
Жанры Джаз, фьюжн, R&B, фанк, смус-джаз
http://www.marcusmiller.com/
Уильям Генри Маркус Миллер-младший (англ. William Henry Marcus Miller Jr.), больше известный как Маркус Миллер (англ. Marcus Miller) — джазовый музыкант, композитор и продюсер. В первую очередь известен как бас-гитарист и музыкант, работавший с Майлзом Дэвисом, Эриком Клэптоном, Лютером Вандроссом, Дэвидом Сэнборном. Обладатель премии Грэмми за лучший альбом современного джаза в 2001 году (альбом М²) и как соавтор лучшей ритм-энд-блюз композиции в 1991 году (Power Of Love/Love Power).

Биография

Маркус Миллер родился и вырос в Нью-Йорке. Первые познания в теории музыки и практические уроки он получил у своего отца, органиста и директора церковного хора. Первым музыкальным инструментом Миллера была блокфлейта. Позже, ещё в школе, он начал осваивать кларнет, играя в школьном ансамбле и в New York All-City band. После школы Маркус поступает в Высшую школу музыки и искусства (High School of Music and Art) по классу кларнета. Он хочет продолжить музыкальное образование в консерватории, но не уверен в правильности выбранного инструмента. Поэтому он поступает в колледж без музыкальной специализации — Queens College.
Бас-гитару Миллер впервые взял в руки, играя в местных фанк-группах, когда ему было тринадцать лет. Он осваивал её самостоятельно, используя знания, полученные при изучении игры на кларнете.
Первые записи Маркуса Миллера как бас-гитариста состоялись во время его учёбы в колледже. Со временем ему пришлось оставить учёбу и игру на кларнете, к которому он вернётся лишь через семь лет. Именно в годы обучения он знакомится с такими людьми, как Дэвид Сэнборн, Роберта Флэк, Джордж Бенсон, Лютер Вандросс, Джо Сэмпл, Пол Саймон, Билл Уизерс, Майлз Дэвис. В 1981 году Миллер становится музыкантом в группе Майлза Дэвиса и два года проводит в турне.
Как композитор, Миллер написал «Tutu» для Майлза Дэвиса, композицию, которая определила карьеру Дэвиса в конце 1980-х годов, и была заглавным треком одноимённого альбома, для которого Маркус написал все песни, кроме двух, да и то одна из них была написана в соавторстве с Дэвисом. Он также написал «Chicago Song» для Дэвида Сэнборна и был соавтором «Til My Baby Comes Home», «It’s Over Now», «For You to Love» и «Power of Love» для легенды блюза Лютера Вандросса. Миллер также написал «Da Butt», которая была показана в School Daze Спайка Ли.
Спустя какое-то время Миллер начинает продюсировать других музыкантов. Его первым серьёзным опытом стал альбом Дэвида Сэнборна Voyeur, принесший ему Грэмми. Вместе они работали над другими популярными альбомами, в числе которых Close Up, Upfront и получивший Грэмми в 2000 году Inside.
Лютер Вандросс, легенда ритм-энд-блюза, также долгие годы сотрудничал с Миллером. Многие хиты Вандросса, среди которых Till My Baby Comes Home, It’s Over Now, Any Love, I’m Only Human, были написаны или спродюсированы Миллером.
Он также продюсировал Эла Джерро (Al Jarreau), группу Crusaders, Уэйна Шортера (Wayne Shorter), группу Take 6, Чаку Хан (Chaka Khan), Кенни Гарретта (Kenny Garrett) и уже упоминавшегося Лютера Вандросса.
В 1986 году Маркус Миллер продюсирует альбом Майлза Дэвиса Tutu. Всего как продюсер он участвует в создании ещё двух альбомов Дэвиса.
Карьеру сольного исполнителя Миллер начал в 1993 году альбомом The Sun Don’t Lie. В 1995 в свет вышли Tales. После двух лет гастролей по просьбам своих фанатов он издаёт сборник Live & More. Принесший Грэмми в 2001 году альбом М² был назван журналом Jazziz в числе 10 лучших альбомов года. В последнее время Миллер также сочиняет музыку для фильмов.
Маркус Миллер является обладателем многочисленных премий Грэмми как продюсер Майлза Дэвиса, Лютера Вандросса, Дэвида Сэнборна, Боба Джеймса, Чаки Хан и Уэйна Шортера. Он выиграл премию Грэмми за лучшую R & B песню в 1992 году «Power of Love» для Лютера Вандросса, а в 2001-м году за лучший современный джазовый альбом за свой четвёртый сольник M².
Миллер в настоящее время имеет свою собственную группу. В 1997 году он играл на бас-гитаре и бас-кларнете в группе под названием Legends, с участием Эрика Клэптона (гитара и вокал), Джо Сэмпла (фортепиано), Дэвида Сэнборна (альт-саксофон) и Стива Гэдда (ударные). Группа приняла участие в одиннадцати крупных джазовых фестивалях в Европе.

Видео:

Video ID: 1
Format: MPEG-4
Visual Format profile: [email protected] Format settings,
BVOP: No Format settings,
QPel: No Format settings,
GMC: No warppoints
Format settings, Matrix: Default (H.263)
Codec ID: 20
Duration: 56mn 38s
Bit rate: 1 721 Kbps
Width: 720 pixels
Height: 480 pixels
Display aspect ratio: 3:2
Frame rate mode: Variable
Frame rate: 29.970 fps
Minimum frame rate: 29.976 fps
Maximum frame rate: 30.218 fps
Standard: NTSC
Color space: YUV
Chroma subsampling: 4:2:0
Bit depth: 8 bits
Scan type: Progressive
Compression mode: Lossy
Bits/(Pixel*Frame): 0.166
Stream size: 698 MiB (93%)
Writing library: ZJMedia
MPEG Encoder

Аудио:

Audio ID: 2
Format: AAC
Format/Info: Advanced AudioCodec
Format profile: LC
Codec ID: 40
Duration: 56mn 38s
Bit rate mode: Variable
Bit rate: 128 Kbps
Channel(s): 2 channels
Channel positions: Front: L R
Sampling rate: 44.1 KHz
Compression mode: Lossy
Stream size: 51.9 MiB (7%)

Скриншоты

Создавать темы 02-Фев-2014 23:47

[Профиль]  [ЛС] 
Показать сообщения:    
Ответить на тему

Текущее время: 17-Дек 05:38

Часовой пояс: UTC + 5



Вы не можете начинать темы
Вы не можете отвечать на сообщения
Вы не можете редактировать свои сообщения
Вы не можете удалять свои сообщения
Вы не можете голосовать в опросах
Вы не можете прикреплять файлы к сообщениям
Вы не можете скачивать файлы