DRUMMERS COLLECTIVE8 25TH ANNIVERSARY CELEBRATION & BASS DAY 2002 [2002 г., JAZZ, DVDRip]

Ответить на тему
 

arturtairov ®

Стаж: 5 лет

Сообщений: 79

Симпатии: 5

DRUMMERS COLLECTIVE8 25TH ANNIVERSARY CELEBRATION & BASS DAY 2002
Год выпуска: 2002
Страна: U.S.A.
Жанр: JAZZ
Продолжительность: 3ч 5м
Описание: Потрясающий концерт таких мастеров джазовой музыки как Виктор Вутн, Джон Патитутчи, Стив Смит, Стив Гэд, Дэйв Вэкл и др.
Ценители джаза не останутся равнодушными.
Качество: DVDRip
Формат: MPEG
Видео кодек: DivX
Аудио кодек: M4A (tracks)

Видео:

Video
ID : 1
Format : MPEG-4 Visual
Format profile : [email protected]
Format settings, BVOP : No
Format settings, QPel : No
Format settings, GMC : No warppoints
Format settings, Matrix : Default (H.263)
Codec ID : 20
Duration : 3h 4mn
Bit rate mode : Variable
Bit rate : 1 024 Kbps
Maximum bit rate : 2 560 Kbps
Width : 720 pixels
Height : 480 pixels
Display aspect ratio : 4:3
Frame rate mode : Constant
Frame rate : 25.000 fps
Standard : NTSC
Color space : YUV
Chroma subsampling : 4:2:0
Bit depth : 8 bits
Scan type : Progressive
Compression mode : Lossy
Bits/(Pixel*Frame) : 0.119
Stream size : 1.32 GiB (89%)
Language : English
Encoded date : UTC 2014-02-02 19:13:36
Tagged date : UTC 2014-02-02 19:18:15

Аудио:

Audio
ID : 2
Format : AAC
Format/Info : Advanced Audio Codec
Format profile : LC
Codec ID : 40
Duration : 3h 4mn
Source duration : 3h 4mn
Bit rate mode : Variable
Bit rate : 126 Kbps
Maximum bit rate : 242 Kbps
Channel(s) : 2 channels
Channel positions : Front: L R
Sampling rate : 44.1 KHz
Compression mode : Lossy
Stream size : 166 MiB (11%)
Source stream size : 166 MiB (11%)
Language : English
Encoded date : UTC 2014-02-02 19:18:15
Tagged date : UTC 2014-02-02 19:18:20

Скриншоты


Создавать темы 03-Фев-2014 00:26

[Профиль]  [ЛС] 
Показать сообщения:    
Ответить на тему

Текущее время: 24-Сен 20:41

Часовой пояс: UTC + 5



Вы не можете начинать темы
Вы не можете отвечать на сообщения
Вы не можете редактировать свои сообщения
Вы не можете удалять свои сообщения
Вы не можете голосовать в опросах
Вы не можете прикреплять файлы к сообщениям
Вы не можете скачивать файлы