Психоз / Psychosis (Рег Тревисс) [2010 г., Ужасы, Триллер, Детектив, DVDRip]

Ответить на тему
 

mbs_maks ®

Стаж: 3 года 10 месяцев

Сообщений: 14

Симпатии: 9

Психоз / Psychosis
Год выпуска: 2010
Страна: Великобритания
Жанр: Ужасы, Триллер, Детектив
Продолжительность: 01:29:27
Перевод: Профессиональный (многоголосый, закадровый)
Режиссер: Рег Тревисс
В ролях: Харизма Карпентер, Пол Скалфор, Риччи Харнетт, Джастин Хоукинс, Ти Глейсер, Бернард Кэй, Шон Чэпман, Катрина Рошелль
Описание: Зимой 1992 года группа молодых анархистов не побоялась ехать через незнакомую местность и, бросив ей вызов, разбила здесь лагерь. В первую же ночь все они пали жертвами психопата. 15 лет спустя, известная писательница в жанре криминала Сьюзен, очень тонкая натура, вместе с мужем переезжает из ее родной Калифорнии на его родину Англию в поисках покоя. Свою идиллию они находят в уединенном загородном доме. Но дом хранит страшную тайну прошлого, и вскоре Сьюзен придется столкнуться со своим самым страшным кошмаром…
Дата мировой премьеры: 13 июля 2010
Дата выхода DVD релиза: 29 ноября 2011
Качество: DVDRip
Формат: MPEG
Видео кодек: XviD
Аудио кодек: AC3
Видео: 720x384,~1808 kb/s,25,000 fps
Аудио: AC3 5.1,384 kb/s,48,0 КГц

Скриншоты

MI

Общее
Полное имя : E:\Video\psixoz.2010.DVDRip.XviD.JRG.avi
Формат : AVI
Формат/Информация : Audio Video Interleave
Размер файла : 1,38 Гбайт
Продолжительность : 1 ч. 29 м.
Общий поток : 2203 Кбит/сек
Программа кодирования : VirtualDubMod 1.5.10.3 | www.virtualdub-fr.org || (build 2550/release)
Библиотека кодирования : VirtualDubMod build 2550/release
Видео
Идентификатор : 0
Формат : MPEG-4 Visual
Профиль формата : Advanced [email protected]
Параметр BVOP формата : 2
Параметр QPel формата : Нет
Параметр GMC формата : Без точки перехода
Параметр матрицы формата : Default (MPEG)
Идентификатор кодека : XVID
Идентификатор кодека/Подсказка : XviD
Продолжительность : 1 ч. 29 м.
Битрейт : 1809 Кбит/сек
Ширина : 720 пикс.
Высота : 384 пикс.
Соотношение сторон : 1,875
Частота кадров : 25,000 кадр/сек
Цветовое пространство : YUV
Подвыборка цветности : 4:2:0
Битовая глубина : 8 бит
Тип развёртки : Прогрессивная
Метод сжатия : С потерями
Бит/(Пиксели*Кадры) : 0.262
Размер потока : 1,13 Гбайт (82%)
Библиотека кодирования : XviD 1.2.1 (UTC 2008-12-04)
Аудио
Идентификатор : 1
Формат : AC-3
Формат/Информация : Audio Coding 3
Расширение режима : CM (complete main)
Идентификатор кодека : 2000
Продолжительность : 1 ч. 29 м.
Вид битрейта : Постоянный
Битрейт : 384 Кбит/сек
Канал(ы) : 6 канала(ов)
Расположение каналов : Front: L C R, Side: L R, LFE
Частота : 48,0 КГц
Битовая глубина : 16 бит
Метод сжатия : С потерями
Размер потока : 246 Мбайт (17%)
Выравнивание : Разделение по промежуткам
Продолжительность промежутка : 40 мс. (1,00 видеокадр)
Время предзагрузки промежутка : 500 ms


Последний раз редактировалось: mbs_maks (2014-02-12 19:14), всего редактировалось 6 раз(а)

Создавать темы 03-Фев-2014 13:43

[Профиль]  [ЛС] 

СтАсИкОс

Стаж: 6 лет 10 месяцев

Сообщений: 314

Симпатии: 20

Сделайте все скрины разрешения, указанного вами в тех. данных.
Как сделать скрины -->> http://tas-ix.net/viewtopic.php?t=7193

Создавать темы 03-Фев-2014 14:18

[Профиль]  [ЛС] 

Loky

Стаж: 4 года 4 месяца

Сообщений: 75

Симпатии: 8

Большое спасибо автору давно искал никак не мог скачать:) облегчил!:)

Создавать темы 04-Фев-2014 05:29

[Профиль]  [ЛС] 
Показать сообщения:    
Ответить на тему

Текущее время: 23-Ноя 01:20

Часовой пояс: UTC + 5



Вы не можете начинать темы
Вы не можете отвечать на сообщения
Вы не можете редактировать свои сообщения
Вы не можете удалять свои сообщения
Вы не можете голосовать в опросах
Вы не можете прикреплять файлы к сообщениям
Вы не можете скачивать файлы