Пятница 13-е. / Friday the 13th / Extended Killer Cut. (Маркус Ниспел / Marcus Nispel.) [2009 г., Ужасы., BDRip][Dub + Sub Rus + Original Eng]

Ответить на тему
 

X3JumperRaZ0R ®

Стаж: 5 лет 3 месяца

Сообщений: 177

Симпатии: 151

Пятница 13-е. / Friday the 13th.
«Добро пожаловать на Хрустальное озеро»

-Год выпуска: 2009
Страна: США.
Жанр: Ужасы.
Продолжительность: 01:45:30
Перевод: Профессиональный (полное дублирование) + Оригинал.
Субтитры: Русские, Английские (внешние, *.srt)-Режиссер: Маркус Ниспел / Marcus Nispel.-В ролях: Джаред Падалеки (Clay Miller), Даниэль Панабэйкер (Jenna), Аманда Риджетти (Whitney Miller), Трэвис Ван Винкл (Trent), Аарон Йу (Chewie), Дерек Мирс (Jason Voorhees), Джонатан Садовский (Wade), Джулианна Гуилл (Bree), Бен Фельдман (Richie), Арлен Эскарпета (Lawrence), Райан Хансен (Nolan), Уилла Форд (Chelsea).-Описание: Молодые друзья Уитни, Майк, Ричи, Аманда и Уэйд заблудились в лесах около заброшенного лагеря «Хрустальное озеро». Когда их любопытство взяло верх, они решили посетить то место, где когда-то обитал убийца-психопат. Тем временем Трент приглашает друзей: Джену, Брии, Чеви, Челси, Лоуренса и Нолана в его хижину, расположенную у озера, на уикэнд, полный секса, выпивки и наркотиков.
Однако их забавный уикэнд, по-видимому, скоро перерастет в кошмар после того, как одинокий путешественник Клэй начинает поиски своей пропавшей сестры Уитни, и молодые тинейджеры вскоре оказываются лицом к лицу со злом, заново рожденным, невообразимым, и усовершенствованным, его имя Джейсон Вурхиз!...
-
Качество: BDRip. (BDRemux 1080p)
Формат: AVI.
Видео кодек: XviD.
Аудио кодек: AC3.
Видео: 720x304 (2.37:1), 23.976 fps, XviD build 65 ~1509 kbps avg, 0.29 bit/pixel.
Аудио:1: 48 kHz, AC3 Dolby Digital, 3/2 (L,C,R,l,r) + LFE ch, ~448.00 kbps avg |DUB|.
Аудио:2: 48 kHz, AC3 Dolby Digital, 3/2 (L,C,R,l,r) + LFE ch, ~448.00 kbps avg |ENG|.
Возраст: 18+-

MI

General
Complete name : D:\kino-5\555\Friday.The.13th.2009.RUS.BDRip.XviD.AC3.-HELLYWOOD\Friday.The.13th.2009.RUS.BDRip.XviD.AC3.-HELLYWOOD.avi
Format : AVI
Format/Info : Audio Video Interleave
File size : 1.45 GiB
Duration : 1h 45mn
Overall bit rate : 1 967 Kbps
Movie name : Friday the 13th (2009)
Director : Ermac [1/3 DVD-R, Blu-ray CEE]
Writing application : VirtualDubModRus 1.5.10.2 (build 2542/release)
Video
ID : 0
Format : MPEG-4 Visual
Format profile : Advanced [email protected]
Format settings, BVOP : 2
Format settings, QPel : No
Format settings, GMC : No warppoints
Format settings, Matrix : Custom
Codec ID : XVID
Codec ID/Hint : XviD
Duration : 1h 45mn
Bit rate : 1 510 Kbps
Width : 720 pixels
Height : 304 pixels
Display aspect ratio : 2.35:1
Frame rate : 23.976 fps
Color space : YUV
Chroma subsampling : 4:2:0
Bit depth : 8 bits
Scan type : Progressive
Compression mode : Lossy
Bits/(Pixel*Frame) : 0.288
Stream size : 1.11 GiB (77%)
Writing library : XviD 65
Audio
ID : 1
Format : AC-3
Format/Info : Audio Coding 3
Mode extension : CM (complete main)
Codec ID : 2000
Duration : 1h 45mn
Bit rate mode : Constant
Bit rate : 448 Kbps
Channel(s) : 6 channels
Channel positions : Front: L C R, Side: L R, LFE
Sampling rate : 48.0 KHz
Bit depth : 16 bits
Compression mode : Lossy
Stream size : 338 MiB (23%)
Alignment : Split accross interleaves
Interleave, duration : 42 ms (1.00 video frame)
Interleave, preload duration : 500 ms
General
Complete name : D:\kino-5\555\Friday.The.13th.2009.RUS.BDRip.XviD.AC3.-HELLYWOOD\Friday.The.13th.2009.RUS.BDRip.XviD.AC3.-HELLYWOOD.ENG.ac3
Format : AC-3
Format/Info : Audio Coding 3
File size : 338 MiB
Duration : 1h 45mn
Overall bit rate : 448 Kbps
Audio
Format : AC-3
Format/Info : Audio Coding 3
Mode extension : CM (complete main)
Duration : 1h 45mn
Bit rate mode : Constant
Bit rate : 448 Kbps
Channel(s) : 6 channels
Channel positions : Front: L C R, Side: L R, LFE
Sampling rate : 48.0 KHz
Bit depth : 16 bits
Compression mode : Lossy
Stream size : 338 MiB (100%)
General
Complete name : D:\kino-5\555\Friday.The.13th.2009.RUS.BDRip.XviD.AC3.-HELLYWOOD\Friday.The.13th.2009.RUS.BDRip.XviD.AC3.-HELLYWOOD.ENG.srt
File size : 67.2 KiB
General
Complete name : D:\kino-5\555\Friday.The.13th.2009.RUS.BDRip.XviD.AC3.-HELLYWOOD\Friday.The.13th.2009.RUS.BDRip.XviD.AC3.-HELLYWOOD.RUS.srt
Format : SubRip
File size : 60.1 KiB
Text
Format : SubRip
Compression mode : Lossless

Знаете ли Вы, что...

Показанная в одном из рекламных роликов сцена, как Джейсон точит мачете в театральную версию картины не вошла.
Слово «Fuck» употребляется в фильме 95 раз.
Дерека Мирса, сыгравшего Джейсона, каждый день гримировали по три часа.
Картина снималась в Техасе.
Актриса Уилла Форд десять дней готовилась к сцене катания на водной доске. До этого актрисе не доводилось делать что-либо подобное.

Скриншот c названием фильма

Скриншоты

-



-

Создавать темы 04-Фев-2014 05:23

[Профиль]  [ЛС] 

X3JumperRaZ0R ®

Стаж: 5 лет 3 месяца

Сообщений: 177

Симпатии: 151

Модераторы Проверите МБ.?

Создавать темы 05-Фев-2014 04:29

[Профиль]  [ЛС] 

yusuf.0088

Стаж: 4 года

Сообщений: 116

Симпатии: 69

X3JumperRaZ0R,
Не ухОдите с раздач
оформили не в том разделе
Качество: BDRip. (BDRemux 1080p)
это точно не BDRemux
aa

Создавать темы 05-Фев-2014 11:37

[Профиль]  [ЛС] 

Топик был перенесен из форума Зарубежное кино в форум Зарубежное кино

ziyod

Создавать темы 05-Фев-2014 14:27

 

Sodirxoja

Стаж: 5 лет 9 месяцев

Сообщений: 16

[url][/url]

Создавать темы 18-Фев-2017 21:20

[Профиль]  [ЛС] 
Показать сообщения:    
Ответить на тему

Текущее время: 21-Окт 15:33

Часовой пояс: UTC + 5



Вы не можете начинать темы
Вы не можете отвечать на сообщения
Вы не можете редактировать свои сообщения
Вы не можете удалять свои сообщения
Вы не можете голосовать в опросах
Вы не можете прикреплять файлы к сообщениям
Вы не можете скачивать файлы