Свежее мясо / Fresh Meat ( Дэнни Мулрон) [2012, ужасы, комедия, HDRip ]

Ответить на тему
 

Каротажник ®

Стаж: 3 года 10 месяцев

Сообщений: 195

Симпатии: 211

Свежее мясо / Fresh Meat

Год выпуска: 2012
Страна: Новая Зеландия
Жанр: ужасы, комедия
Продолжительность: 01:31:00
Перевод: Двухголосный (закадровый) - [DeadSno & den904]-Режиссёр: Дэнни Мулрон
В ролях: Темуэра Моррисон, Николя Кавана, Ханна Тевита, Кейт Эллиотт, Jack Sergent-Shadbolt, Leand Macadaan, Ralph Hilaga, Кан Уэст, Джеймс Эшкрофт, Ричард Ноулз-
Семья клана Маори оказывается в заложниках преступной группы. Комичность ситуации заключается в том, что преступники страдают дисфункциональностью. Но самое интересное в заложниках оказывается не простая семья, а семья каннибалов, но преступники узнают данный факт, когда становится уже поздно. Кто на самом деле станет жертвой этого преступления?-
Качество: HDRip
Формат: AVI
Видео: XviD, 1495 Кбит/с, 720x304 24.000 fps 8 bits
Аудио : Русский (AC3, 2 ch, 192 Кбит/с 48.0 KHz), анлийский (AC3, 6 ch, 448 Кбит/с 48.0 KHz)

Media Info

Format : AVI
Format/Info : Audio Video Interleave
File size : 1.37 GiB
Duration : 1h 31mn
Overall bit rate : 2 149 Kbps
Writing application : VirtualDubMod 1.5.10.2 (build 2540/release)
Writing library : VirtualDubMod build 2540/release
Video #0
ID : 0
Format : MPEG-4 Visual
Format profile : Advanced [email protected]
Format settings, BVOP : 3
Format settings, QPel : Yes
Format settings, GMC : 3 warppoints
Format settings, Matrix : Default (H.263)
Codec ID : XVID
Codec ID/Hint : XviD
Duration : 1h 31mn
Bit rate : 1 495 Kbps
Width : 720 pixels
Height : 304 pixels
Display aspect ratio : 2.35:1
Frame rate : 24.000 fps
Color space : YUV
Chroma subsampling : 4:2:0
Bit depth : 8 bits
Scan type : Progressive
Compression mode : Lossy
Bits/(Pixel*Frame) : 0.285
Stream size : 975 MiB (70%)
Writing library : XviD 73
Audio #1
ID : 1
Format : AC-3
Format/Info : Audio Coding 3
Mode extension : CM (complete main)
Format settings, Endianness : Big
Codec ID : 2000
Duration : 1h 31mn
Bit rate mode : Constant
Bit rate : 192 Kbps
Channel(s) : 2 channels
Channel positions : Front: L R
Sampling rate : 48.0 KHz
Bit depth : 16 bits
Compression mode : Lossy
Stream size : 125 MiB (9%)
Alignment : Split accross interleaves
Interleave, duration : 42 ms (1.00 video frame)
Interleave, preload duration : 500 ms
Audio #2
ID : 2
Format : AC-3
Format/Info : Audio Coding 3
Mode extension : CM (complete main)
Format settings, Endianness : Big
Codec ID : 2000
Duration : 1h 31mn
Bit rate mode : Constant
Bit rate : 448 Kbps
Channel(s) : 6 channels
Channel positions : Front: L C R, Side: L R, LFE
Sampling rate : 48.0 KHz
Bit depth : 16 bits
Compression mode : Lossy
Stream size : 292 MiB (21%)
Alignment : Split accross interleaves
Interleave, duration : 42 ms (1.00 video frame)
Interleave, preload duration : 500 ms

Скриншоты


Создавать темы 04-Фев-2014 19:20

[Профиль]  [ЛС] 

outoforder

Стаж: 4 года 9 месяцев

Сообщений: 812

Симпатии: 172

И где сидоры???? bu aq

Создавать темы 30-Июл-2014 12:30

[Профиль]  [ЛС] 

fdjon

Стаж: 2 года 5 месяцев

Сообщений: 25

Симпатии: 3

Жанр фильма не ужасы а только комедия и комедия!!!?? спасибо!

Создавать темы 26-Мар-2015 13:07

[Профиль]  [ЛС] 
Показать сообщения:    
Ответить на тему

Текущее время: 21-Авг 06:01

Часовой пояс: UTC + 5



Вы не можете начинать темы
Вы не можете отвечать на сообщения
Вы не можете редактировать свои сообщения
Вы не можете удалять свои сообщения
Вы не можете голосовать в опросах
Вы не можете прикреплять файлы к сообщениям
Вы не можете скачивать файлы