(Smooth, Jazz-Pop) Joe McBride - Keys To Your Heart - 1996, APE (image+.cue), lossless

Ответить на тему
 

Admin ®

Стаж: 5 лет 8 месяцев

Сообщений: 580

Симпатии: 106

♦ Joe McBride - Keys To Your Heart ♦ Жанр: Smooth, Jazz-Pop
Страна-производитель диска: Russia
Год издания: 1996
Аудиокодек: APE (*.ape)
Тип рипа: image+.cue
Битрейт аудио: lossless
Продолжительность: 00:50:25
Источник (релизер): Рип с диска.
Наличие сканов в содержимом раздачи: да
Треклист:
01. Highland Park [04:44]
02. Let's Spend Some Time Together [04:46]
03. People Make The World Go Round [04:35]
04. It's Got to Be Love [03:59]
05. Chit-Chat [04:48]
06. After Sunset [04:50]
07. I Can Never Get Enough [04:36]
08. Miracles [04:30]
09. High Steppin' [04:05]
10. You Are My Lady [04:39]
11. Squeeze Play [04:47]

Лог создания рипа

Exact Audio Copy V1.0 beta 3 from 29. August 2011
EAC extraction logfile from 15. July 2013, 13:12
Joe McBride / Keys To Your Heart
Used drive : Optiarc DVD RW AD-5200A Adapter: 0 ID: 0
Read mode : Secure
Utilize accurate stream : Yes
Defeat audio cache : Yes
Make use of C2 pointers : No
Read offset correction : 48
Overread into Lead-In and Lead-Out : No
Fill up missing offset samples with silence : Yes
Delete leading and trailing silent blocks : No
Null samples used in CRC calculations : Yes
Used interface : Native Win32 interface for Win NT & 2000
Used output format : User Defined Encoder
Selected bitrate : 128 kBit/s
Quality : High
Add ID3 tag : No
Command line compressor : F:\Program Files\Monkey's Audio\wapet.exe
Additional command line options : %dest% -t "Genre=%genre%" -t "Artist=%artist%" -t "Title=%title%" -t "Album=%albumtitle%" -t "Year=%year%" -t "Track=%tracknr%" -t "Comment=%comment%" mac.exe %source% %dest% -c3000
TOC of the extracted CD
Track | Start | Length | Start sector | End sector
---------------------------------------------------------
1 | 17:24.35 | 4:44.27 | 78335 | 99661
2 | 22:08.62 | 4:46.70 | 99662 | 121181
3 | 26:55.57 | 4:35.60 | 121182 | 141866
4 | 31:31.42 | 3:59.13 | 141867 | 159804
5 | 35:30.55 | 4:48.37 | 159805 | 181441
6 | 40:19.17 | 4:50.30 | 181442 | 203221
7 | 45:09.47 | 4:36.30 | 203222 | 223951
8 | 49:46.02 | 4:30.20 | 223952 | 244221
9 | 54:16.22 | 4:05.40 | 244222 | 262636
10 | 58:21.62 | 4:39.73 | 262637 | 283634
11 | 63:01.60 | 4:47.72 | 283635 | 305231
Range status and errors
Selected range
Filename F:\1996.Joe McBride - Keys To Your Heart\Joe McBride - Keys To Your Heart.wav
Peak level 100.0 %
Extraction speed 1.1 X
Range quality 97.4 %
Test CRC 8F4A4516
Copy CRC 8F4A4516
Copy OK
No errors occurred
AccurateRip summary
Track 1 accurately ripped (confidence 2) [50E09A3E] (AR v1)
Track 2 accurately ripped (confidence 2) [1F00CBB9] (AR v1)
Track 3 accurately ripped (confidence 2) [F3E71870] (AR v1)
Track 4 accurately ripped (confidence 2) [BE245E1C] (AR v1)
Track 5 accurately ripped (confidence 2) [9FB7D990] (AR v1)
Track 6 accurately ripped (confidence 2) [B0500024] (AR v1)
Track 7 accurately ripped (confidence 2) [A6E77E6C] (AR v1)
Track 8 cannot be verified as accurate (confidence 3) [CABD76CC], AccurateRip returned [21954D6B] (AR v2)
Track 9 accurately ripped (confidence 2) [BE83F549] (AR v1)
Track 10 accurately ripped (confidence 2) [004758DD] (AR v1)
Track 11 accurately ripped (confidence 2) [563CA09A] (AR v1)
10 трек(и) скопированы точно
1 трек(и) не удалось проверить на точность
Some tracks could not be verified as accurate
End of status report
==== Log checksum 347FB4706177895AD30E22D4E793DAD2C3D7EB9745BF76F98893EA56A5AE4011 ====

Содержание индексной карты (.CUE)

REM GENRE "Smooth Jazz"
REM DATE 1996
REM DISCID 9F0BD10B
REM COMMENT "ExactAudioCopy v1.0b3"
PERFORMER "Joe McBride"
TITLE "Keys To Your Heart"
FILE "Joe McBride - Keys To Your Heart.ape" WAVE
TRACK 01 AUDIO
TITLE "Highland Park"
PERFORMER "Joe McBride"
INDEX 00 00:00:00
INDEX 01 17:24:35
TRACK 02 AUDIO
TITLE "Let's Spend Some Time Together"
PERFORMER "Joe McBride"
INDEX 01 22:08:62
TRACK 03 AUDIO
TITLE "People Make The World Go Round"
PERFORMER "Joe McBride"
INDEX 01 26:55:57
TRACK 04 AUDIO
TITLE "It's Got to Be Love"
PERFORMER "Joe McBride"
INDEX 01 31:31:42
TRACK 05 AUDIO
TITLE "Chit-Chat"
PERFORMER "Joe McBride"
INDEX 01 35:30:55
TRACK 06 AUDIO
TITLE "After Sunset"
PERFORMER "Joe McBride"
INDEX 01 40:19:17
TRACK 07 AUDIO
TITLE "I Can Never Get Enough"
PERFORMER "Joe McBride"
INDEX 01 45:09:47
TRACK 08 AUDIO
TITLE "Miracles"
PERFORMER "Joe McBride"
INDEX 01 49:46:02
TRACK 09 AUDIO
TITLE "High Steppin'"
PERFORMER "Joe McBride"
INDEX 01 54:16:22
TRACK 10 AUDIO
TITLE "You Are My Lady"
PERFORMER "Joe McBride"
INDEX 01 58:21:62
TRACK 11 AUDIO
TITLE "Squeeze Play"
PERFORMER "Joe McBride"
INDEX 01 63:01:60

Состав

Personnel: Joe McBride (vocals, piano, Hammond B-3 organ, Fender Rhodes, keyboards); Analisa Ripke, Philip Bailey (vocals); Grover Washington Jr. (soprano saxophone); Wayne DeLano (alto & tenor saxophones); Larry Carlton, Jason Bucklin (guitar); Scott Weltner (percussion).

Создавать темы 05-Фев-2014 13:52

[Профиль]  [ЛС] 

timmylove

Стаж: 4 года 3 месяца

Сообщений: 113

Симпатии: 11

Так хорошо началось качаться и....на 99,2% облом!!!

Создавать темы 05-Фев-2014 15:14

[Профиль]  [ЛС] 

escope

Стаж: 5 лет 7 месяцев

Сообщений: 20

обалденная музычка, спасибо!

Создавать темы 06-Фев-2014 01:24

[Профиль]  [ЛС] 

timmylove

Стаж: 4 года 3 месяца

Сообщений: 113

Симпатии: 11

музыка суперская! я еще в детстве ее слушал...запись на кассете сохранилась но переписать не на чем было.
Автор, спасибо!

Создавать темы 07-Фев-2014 15:28

[Профиль]  [ЛС] 

escope

Стаж: 5 лет 7 месяцев

Сообщений: 20

Даешь больше смуф джаза!

Создавать темы 07-Фев-2014 23:19

[Профиль]  [ЛС] 

Admin ®

Стаж: 5 лет 8 месяцев

Сообщений: 580

Симпатии: 106

не слушают данный жанр, timmylove искал, вот и залил.

Создавать темы 07-Фев-2014 23:23

[Профиль]  [ЛС] 

timmylove

Стаж: 4 года 3 месяца

Сообщений: 113

Симпатии: 11

Даешь больше смуф джаза!
В моих раздачах есть

Создавать темы 08-Фев-2014 08:31

[Профиль]  [ЛС] 
Показать сообщения:    
Ответить на тему

Текущее время: 24-Сен 04:28

Часовой пояс: UTC + 5



Вы не можете начинать темы
Вы не можете отвечать на сообщения
Вы не можете редактировать свои сообщения
Вы не можете удалять свои сообщения
Вы не можете голосовать в опросах
Вы не можете прикреплять файлы к сообщениям
Вы не можете скачивать файлы