Советник / The Counselor (Ридли Скотт) [2013, триллер, драма, криминал, BDRip 720p][Лицензия]

Ответить на тему
 

Djoni111095 ®

Стаж: 5 лет 1 месяц

Сообщений: 57

Симпатии: 11

--Год выпуска: 2013
Страна: США, Великобритания
Жанр: триллер, драма, криминал, ...
Продолжительность: 01:57:22
Перевод: Дублированное [Лицензия]--Режиссер: Ридли Скотт
Сценарий: Кормак МакКарти
Продюсер: Майкл Костиган, Марк Хаффам, Кормак МакКарти, ...
Оператор: Дариуш Вольски
Композитор: Дэниэл Пембертон
Художник: Артур Макс, Алекс Камерон, Алехандро Фернандез, ..
Монтаж: Пьетро Скалия--В ролях: Майкл Фассбендер, Пенелопа Крус, Кэмерон Диаз, Хавьер Бардем, Брэд Питт, Бруно Ганц, Рози Перес, Тоби Кеббелл, Эмма Ригби, Эдгар Рамирез-- Описание: Успешный адвокат, стоящий практически на вершине успеха и на пороге собственной свадьбы, из любопытства и, конечно, ради денег соглашается на предложение своего давнего знакомого, имеющего тесные связи с преступным миром, перевезти из Мексики в США партию кокаина стоимостью 20 млн. долл.--Доп. информация:
бюджет: $25 000 000
сборы в США: $16 973 715
сборы в мире: + $51 432 000 = $68 405 715
сборы в России: $5 461 734-- --Качество: BDRip 720p
Формат: MKV
Видео: 4655 kb/s, 1280x534, 23.976 fps
Аудио #1: AC3, 640 kb/s (6 ch), 48 Кгц (Rus) Blu-ray EUR
Аудио #2: 4AC3, 640 kb/s (6 ch), 48 Кгц (Eng) Blu-ray EUR--Трейлер-

MI

General
Unique ID : 190912560940351881834041597973988757889 (0x8FA06BFA43737EAAA694AFBD2661D181)
Complete name : C:\Sovetnik.2013.BDRip.mkv
Format : Matroska
File size : 4.86 GiB
Duration : 1h 57mn
Overall bit rate : 5 937 Kbps
Encoded date : UTC 2014-01-29 21:33:20
Writing application : mkvmerge v6.7.0 ('Back to the Ground') 32bit built on Jan 8 2014 15:03:17
Writing library : libebml v1.3.0 + libmatroska v1.4.1
Video
ID : 1
Format : AVC
Format/Info : Advanced Video Codec
Format profile : [email protected]
Format settings, CABAC : Yes
Format settings, ReFrames : 4 frames
Codec ID : V_MPEG4/ISO/AVC
Duration : 1h 57mn
Bit rate : 4 655 Kbps
Width : 1 280 pixels
Height : 534 pixels
Display aspect ratio : 2.35:1
Frame rate : 23.976 fps
Color space : YUV
Chroma subsampling : 4:2:0
Bit depth : 8 bits
Scan type : Progressive
Bits/(Pixel*Frame) : 0.284
Stream size : 3.72 GiB (76%)
Writing library : x264 core 140 r2377+40 929f149 tMod [[email protected] X86_64]
Encoding settings : cabac=1 / ref=4 / deblock=1:0:0 / analyse=0x3:0x133 / me=hex / subme=2 / psy=1 / fade_compensate=0.00 / psy_rd=1.00:0.00 / mixed_ref=1 / me_range=16 / chroma_me=1 / trellis=2 / 8x8dct=1 / cqm=0 / deadzone=21,11 / fast_pskip=0 / chroma_qp_offset=0 / threads=12 / lookahead_threads=4 / sliced_threads=0 / nr=0 / decimate=0 / interlaced=0 / bluray_compat=0 / constrained_intra=0 / fgo=0 / bframes=2 / b_pyramid=2 / b_adapt=2 / b_bias=0 / direct=3 / weightb=1 / open_gop=0 / weightp=2 / keyint=240 / keyint_min=23 / scenecut=40 / intra_refresh=0 / rc=2pass / mbtree=0 / bitrate=4655 / ratetol=1.0 / qcomp=0.60 / qpmin=0:0:0 / qpmax=69:69:69 / qpstep=4 / cplxblur=20.0 / qblur=0.5 / ip_ratio=1.40 / pb_ratio=1.30 / aq=4:0.90 / aq-sensitivity=10.00 / aq-factor=1.00:1.00:1.00 / aq2=0 / aq3=0
Language : English
Audio #1
ID : 2
Format : AC-3
Format/Info : Audio Coding 3
Mode extension : CM (complete main)
Codec ID : A_AC3
Duration : 1h 57mn
Bit rate mode : Constant
Bit rate : 640 Kbps
Channel(s) : 6 channels
Channel positions : Front: L C R, Side: L R, LFE
Sampling rate : 48.0 KHz
Bit depth : 16 bits
Compression mode : Lossy
Stream size : 537 MiB (11%)
Language : Russian
Audio #2
ID : 3
Format : AC-3
Format/Info : Audio Coding 3
Mode extension : CM (complete main)
Codec ID : A_AC3
Duration : 1h 57mn
Bit rate mode : Constant
Bit rate : 640 Kbps
Channel(s) : 6 channels
Channel positions : Front: L C R, Side: L R, LFE
Sampling rate : 48.0 KHz
Bit depth : 16 bits
Compression mode : Lossy
Stream size : 537 MiB (11%)
Language : English
Menu
00:00:00.000 : en:Chapter 1
00:04:44.701 : en:Chapter 2
00:07:54.056 : en:Chapter 3
00:09:49.588 : en:Chapter 4
00:13:45.532 : en:Chapter 5
00:20:49.831 : en:Chapter 6
00:23:53.098 : en:Chapter 7
00:26:31.715 : en:Chapter 8
00:34:09.881 : en:Chapter 9
00:39:30.659 : en:Chapter 10
00:45:38.402 : en:Chapter 11
00:48:20.772 : en:Chapter 12
00:54:04.157 : en:Chapter 13
00:58:46.272 : en:Chapter 14
01:00:29.083 : en:Chapter 15
01:08:26.352 : en:Chapter 16
01:12:55.162 : en:Chapter 17
01:17:10.834 : en:Chapter 18
01:20:23.735 : en:Chapter 19
01:23:28.795 : en:Chapter 20
01:25:56.067 : en:Chapter 21
01:30:28.589 : en:Chapter 22
01:33:16.132 : en:Chapter 23
01:38:24.273 : en:Chapter 24
01:43:28.577 : en:Chapter 25
01:47:40.662 : en:Chapter 26
01:49:45.829 : en:Chapter 27
01:53:11.618 : en:Chapter 28

Скриншоты

Создавать темы 06-Фев-2014 22:39

[Профиль]  [ЛС] 

furkat2757

Стаж: 4 года 10 месяцев

Сообщений: 32

Симпатии: 5

кто нибудь будет раздовать или нет

Создавать темы 24-Фев-2014 15:27

[Профиль]  [ЛС] 
Показать сообщения:    
Ответить на тему

Текущее время: 13-Дек 18:16

Часовой пояс: UTC + 5



Вы не можете начинать темы
Вы не можете отвечать на сообщения
Вы не можете редактировать свои сообщения
Вы не можете удалять свои сообщения
Вы не можете голосовать в опросах
Вы не можете прикреплять файлы к сообщениям
Вы не можете скачивать файлы