BBC: Истоки жизни / BBC: David Attenborough's First Life (Мартин Уильямс) [2010 г., Документальный, HDRip]

Ответить на тему
 

baho ®

Стаж: 4 года

Сообщений: 37

Симпатии: 3

--BBC: Истоки жизни / BBC: David Attenborough's First Life -Год выпуска: 2010
Жанр: Документальный
Продолжительность: 2 x 00:58:58
Субтитры: Английские, Русские
Перевод: Авторский, одноголосый (Владимир Курдов) + оригинальная дорожка
Субтитры: русские и английские (отключаемые)
Режиссер: Мартин Уильямс
-В ролях: Дэвид Аттенборо
Хэйзел Бартон
Бернард Деньян
Филип Донохью
Джим Гелинг
Гай Нарбонне
Жан-Бернар Карон
Джастин Маршалл-Описание: За 50 лет работы на телевидении сэр Дэвид Аттенбро объездил весь земной шар, показывая живой мир во всей его удивительной красоте. Теперь он отправляется в прошлое, к корням дерева жизни, чтобы найти самых первых живых существ, появившихся на нашей планете и попытаться разгадать величайшую загадку появления и развития жизни на Земле.
От побережья Ньюфаундленда, окутанного туманом, до пустынь Северной Америки и тропических джунглей Квинсленда Дэвид Аттенбро в фильме "Первая жизнь" ищет доказательство в окаменелостях и животных невероятного периода истории Земли полмиллиарда лет назад, когда животные впервые появились в океанах. От первых глаз, которые видели, до первых хищников, которые убивали, и первых конечностей, которые шагали по суше, это были создания, которые развили черты и приспособления, позволяющие всем животным, даже нам, выживать в наши дни. Это история, которую можно рассказать только сейчас, поскольку найденные за последние несколько лет ошеломляющие окаменелости по всему миру изменили наше понимание самых первых форм жизни, а современная технология позволяет нам воссоздать первых животных и их окружение с помощью фотореалистичного компьютерного изображения.
- 1 серия _"Зарождение" / "Arrival"
Первая серия посвящена появлению самых первых живых существ - бактерий и последующей их эволюции, породившей первых же многоклеточных животных. В этой же серии рассказывается о странной группе древних организмов - фрактальных животных, не оставивших по себе потомков среди современной фауны, а также о том, как среди этих причудливых созданий появились существа, ставшие прообразом всех современных живых существ.
- 2 серия _"Завоевание" / "Conquest"
Вторая серия рассказывает о времени Кембрийского взрыва разнообразия жизни, когда эволюция всего живого происходила удивительно быстро. Это время появления предков всех групп современных животных. Также в этой серии подробный рассказ об огромной группе вымерших членистоногих - трилобитах и о первых животных, выбравшихся на сушу и освоивших полёт.
-Качество: HDRip
Формат: AVI
Видео кодек: XviD
Аудио кодек: AC3
Видео: Xvid 704x400 25fps Bit rate : 1 700 Kbps
Аудио: Dolby AC3 48000Hz stereo 448kbps

MI

Complete name : BBC.David Attenborough's First Life.2010.Xvid.HDrip\BBC.David Attenborough's First Life.Arrival.2010.XviD.HDRip.avi
Format : AVI
Format/Info : Audio Video Interleave
File size : 1.08 GiB
Duration : 58mn 58s
Overall bit rate : 2 610 Kbps
Movie name : BBC.Pervaja.zhiznj.Zarozhdenie.(1.serija.iz.2).2010.XviD.DVDRip.(HDRip).NovaLan
Writing application : VirtualDubMod 1.5.10.2 (build 2540/release)
Writing library : VirtualDubMod build 2540/release
Video
ID : 0
Format : MPEG-4 Visual
Format profile : Advanced [email protected]
Format settings, BVOP : 2
Format settings, QPel : No
Format settings, GMC : No warppoints
Format settings, Matrix : Default (MPEG)
Codec ID : XVID
Codec ID/Hint : XviD
Duration : 58mn 58s
Bit rate : 1 700 Kbps
Width : 704 pixels
Height : 400 pixels
Display aspect ratio : 16:9
Frame rate : 25.000 fps
Color space : YUV
Chroma subsampling : 4:2:0
Bit depth : 8 bits
Scan type : Progressive
Compression mode : Lossy
Bits/(Pixel*Frame) : 0.241
Stream size : 717 MiB (65%)
Writing library : XviD 1.2.0.dev47 (UTC 2006-11-01)
Audio #1
ID : 1
Format : AC-3
Format/Info : Audio Coding 3
Mode extension : CM (complete main)
Format settings, Endianness : Big
Codec ID : 2000
Duration : 58mn 58s
Bit rate mode : Constant
Bit rate : 448 Kbps
Channel count : 2 channels
Channel positions : Front: L R
Sampling rate : 48.0 KHz
Bit depth : 16 bits
Compression mode : Lossy
Stream size : 189 MiB (17%)
Alignment : Split accross interleaves
Interleave, duration : 40 ms (1.00 video frame)
Interleave, preload duration : 500 ms
Audio #2
ID : 2
Format : AC-3
Format/Info : Audio Coding 3
Mode extension : CM (complete main)
Format settings, Endianness : Big
Codec ID : 2000
Duration : 58mn 57s
Bit rate mode : Constant
Bit rate : 448 Kbps
Channel count : 2 channels
Channel positions : Front: L R
Sampling rate : 48.0 KHz
Bit depth : 16 bits
Compression mode : Lossy
Stream size : 189 MiB (17%)
Alignment : Split accross interleaves
Interleave, duration : 40 ms (1.00 video frame)
Interleave, preload duration : 500 ms

Скриншоты


--


Последний раз редактировалось: baho (2014-02-06 23:14), всего редактировалось 1 раз

Создавать темы 06-Фев-2014 22:43

[Профиль]  [ЛС] 

СтАсИкОс

Стаж: 6 лет 9 месяцев

Сообщений: 314

Симпатии: 20

добавил инфо о субтитрах

Создавать темы 06-Фев-2014 23:14

[Профиль]  [ЛС] 

baho ®

Стаж: 4 года

Сообщений: 37

Симпатии: 3

Ок спс.

Создавать темы 06-Фев-2014 23:39

[Профиль]  [ЛС] 
Показать сообщения:    
Ответить на тему

Текущее время: 21-Окт 22:51

Часовой пояс: UTC + 5



Вы не можете начинать темы
Вы не можете отвечать на сообщения
Вы не можете редактировать свои сообщения
Вы не можете удалять свои сообщения
Вы не можете голосовать в опросах
Вы не можете прикреплять файлы к сообщениям
Вы не можете скачивать файлы