Эфир передачи "Сегодня вечером" с А. Малаховым - Аффтар ЖЖОТ 11.01.2014 [2014 г., Тв-Шоу, SATRip]

Ответить на тему
 

Alex Dancer ®

Стаж: 5 лет 10 месяцев

Сообщений: 181

Симпатии: 21

Эфир передачи "Сегодня вечером" с А. Малаховым - Аффтар ЖЖОТ 11.01.2014-
Год выпуска: 2014
Страна: Россия, Первый канал
Жанр: Тв-Шоу
Продолжительность: 1:25:02
-
Описание: Аффтар Жжот 5.
В центре внимания программы «Сегодня вечером» - самые популярные ролики в Интернете.
-
Ведущий: Андрей Малахов
В гостях: Хор Внутренних воск МВД России, Алла Михеева, Рома Зверь, звёзды эстрады и радиоведущие, участники видео-роликов.
-
Качество: SATRip
Формат: AVI
Видео кодек: DivX
Аудио кодек: MP3
Видео: 720 x 400 (9:5)
Аудио: 48000 Гц, Dual Channel, 128 Кбит/сек
-

МедиаИнфо

General
Format: AVI
Format/Info: Audio Video Interleave
File size: 997 MiB
Duration: 1h 25mn
Overall bit rate: 1 639 Kbps
Writing application: VirtualDubMod 1.5.10.3 (build 2550/release)
Writing library: VirtualDubMod build 2550/release
Copyright: Shuriman
Video
ID: 0
Format: MPEG-4 Visual
Format settings, BVOP: 1
Format settings, QPel: No
Format settings, GMC: No warppoints
Format settings, Matrix: Default (H.263)
Muxing mode: Packed bitstream
Codec ID: DX50
Codec ID/Hint : DivX 5
Duration: 1h 25mn
Bit rate: 1 501 Kbps
Width: 720 pixels
Height: 400 pixels
Display aspect ratio: 16:9
Frame rate: 25.000 fps
Color space: YUV
Chroma subsampling: 4:2:0
Bit depth: 8 bits
Scan type: Progressive
Compression mode: Lossy
Bits/(Pixel*Frame): 0.208
Stream size: 913 MiB (92%)
Writing library: DivX 6.8.5 (UTC 2009-08-20)
Audio
ID: 1
Format: MPEG Audio
Format version: Version 1
Format profile: Layer 3
Mode: Joint stereo
Mode extension: MS Stereo
Codec ID: 55
Codec ID/Hint: MP3
Duration: 1h 25mn
Bit rate mode: Constant
Bit rate: 128 Kbps
Channel(s): 2 channels
Sampling rate: 48.0 KHz
Compression mode: Lossy
Stream size: 77.9 MiB (8%)
Alignment: Split accross interleaves
Interleave, duration: 40 ms (1.00 video frame)
Interleave, preload duration: 500 ms

Скрины




Создавать темы 07-Фев-2014 03:29

[Профиль]  [ЛС] 

demiart

Стаж: 5 лет 7 месяцев

Сообщений: 123

Симпатии: 1

Alex Dancer, это супер шоу ! я так поржал от души кайф просто , хорошо что он сделал передачу такую Аффтер ЖЖет!!))

Создавать темы 07-Фев-2014 19:35

[Профиль]  [ЛС] 

Alex Dancer ®

Стаж: 5 лет 10 месяцев

Сообщений: 181

Симпатии: 21

Остановил все раздачи, весь канал отдал сюда. Но благодаря говнолайну канал маленький, отдача всего 25-30 кило, так что не обижайтесь за маленькую скорость.
demiart, да, я тоже посмеялся когда смотрел.
Сам эфир не смотрел, времени не было, а тут качал с мира под заказ, и решил сам глянуть. Качественное шоу, по крайней мере лучше чем "Пусть говорят"... или «Та нехай поп@здять» (по-украински)

Создавать темы 08-Фев-2014 22:49

[Профиль]  [ЛС] 

Alex Dancer ®

Стаж: 5 лет 10 месяцев

Сообщений: 181

Симпатии: 21

Полного источника не было: 3 мес. 9 дней
Не знаю, что за хрень... Я каждый день на раздаче, и только заметил, что торрент красный. А в Состоянии пишет - Unregistered torrent pass
Модераторы, подскажите как исправить?

Создавать темы 28-Май-2015 10:59

[Профиль]  [ЛС] 

Alex Dancer ®

Стаж: 5 лет 10 месяцев

Сообщений: 181

Симпатии: 21

Народ... кто скачал, вернитесь, пусть другие тоже скачают.

Создавать темы 16-Июл-2015 01:36

[Профиль]  [ЛС] 
Показать сообщения:    
Ответить на тему

Текущее время: 18-Ноя 00:30

Часовой пояс: UTC + 5



Вы не можете начинать темы
Вы не можете отвечать на сообщения
Вы не можете редактировать свои сообщения
Вы не можете удалять свои сообщения
Вы не можете голосовать в опросах
Вы не можете прикреплять файлы к сообщениям
Вы не можете скачивать файлы