Собачья жизнь (ТВ-2) / Dog Days' (Нисимура Дзюндзи) [TV] [13 из 13] [без хардсаба] [RUS(ext), JAP+SUB] [2012 г., приключения, комедия, фэнтези, BDRip] [720p]

Ответить на тему
 

MeiDoCorpse ®

Стаж: 4 года 7 месяцев

Сообщений: 222

Симпатии: 14

- Год выпуска: 2012
Страна: Япония
Жанр: приключения, комедия, фэнтези
Продолжительность: ТВ | 13 эп. по 25 мин.-Режиссёр: Нисимура Дзюндзи
Автор оригинала: Цудзуки Маки
Студия: Seven Arcs-Описание:
Синку Идзуми, юный путешественник-экстремал, на весенних каникулах успел побывать в волшебном мире Фрониарда, где под малиновым небом с летающими островами царит дух приключений, войны похожи на веселые спортивные забавы, а местные красавицы все как на подбор с ушками и хвостиками! Жителя нашего мира призвали как героя – и он стал им, за короткий срок разрешив внезапную вспышку вражды между странами-соседями Галеттом и Бискотти, а также усмирив злобного демона. Неудивительно, что парень завел множество друзей, а подруг еще больше. Самой дорогой из них, принцессе Мельхиор Филиано Бискотти, Синку обещал вернуться – а герои ведь всегда держат слово!
За компанию на чужбине веселее, и потому в летние каникулы на Фрониард отправляется уже целая делегация. Синку пригласил с собой подругу детства Беки и кузину Нанами – старую соперницу и такую же отчаянную спортсменку. Теперь свои герои есть у Бискотти и Галетта, да и скромница Беки, мы верим, не останется в стороне. Итак, войска собираются, священное оружие ждет, на сцену спешат новые воины, рыцари и коронованные особы. Дни «собачьей звезды» Сириуса, самые жаркие летние деньки в мире сериала еще впереди!
© Hollow, World Art-Cсылки: Официальная страница || AniDB || World Art || MAL-Качество: BDRip
Энкод: Winter
Контейнер: mkv
Тип видео: Без хардсаба
Наличие линковки: Нет
Видео: x264 (Hi10p), 1280x720, ~3400 Kbps, 23.976 fps
Аудио: Japanese, Vorbis, 48000Hz, ~256 Kbps, 2ch, в составе контейнера
Аудио: Russian, AC3, 48000Hz, ~192 Kbps, 2ch, внешними файлами | одноголосая (жен.) от Persona99
Субтитры: Russian, ASS, внешними файлами | перевод от Hollow & Obelikx-

Список эпизодов

01. A Hero Appears!
02. Pastillage Joins the Fight!
03. Three Heroes!
04. Biscotti Summer Camp!
05. Galette Sword Style Record!
06. Legendary Hero-King of Pastillage
07. Battle at the Cave of Sealing!
08. Esnart Arts and Music Festival
09. Union Fest
10. One-On-One In The Skies and On Land
11. Change My Heart
12. Final Stage
13. Summer Memories

Скриншоты

Подробные тех. данные

General
Unique ID : 241317285502627413146936097967481159725 (0xB58C04C497E13561BDA9F37D6CD6002D)
Complete name : ***\Dog Days TV-2 [BD] [720p]\[Winter] Dog Days' 01 [BDrip 1280x720 x264 Vorbis].mkv
Format : Matroska
Format version : Version 2
File size : 700 MiB
Duration : 23mn 43s
Overall bit rate mode : Variable
Overall bit rate : 4 126 Kbps
Encoded date : UTC 2012-12-26 17:02:31
Writing application : mkvmerge v2.9.8 ('C'est le bon') built on Aug 13 2009 12:49:06
Writing library : libebml v0.7.7 + libmatroska v0.8.1
Video
ID : 1
Format : AVC
Format/Info : Advanced Video Codec
Format profile : High [email protected]
Format settings, CABAC : Yes
Format settings, ReFrames : 9 frames
Codec ID : V_MPEG4/ISO/AVC
Duration : 23mn 43s
Bit rate : 3 788 Kbps
Width : 1 280 pixels
Height : 720 pixels
Display aspect ratio : 16:9
Frame rate mode : Constant
Frame rate : 23.976 fps
Color space : YUV
Chroma subsampling : 4:2:0
Bit depth : 10 bits
Scan type : Progressive
Bits/(Pixel*Frame) : 0.171
Stream size : 643 MiB (92%)
Writing library : x264 core 128 r2216 198a7ea
Encoding settings : cabac=1 / ref=9 / deblock=1:-2:-2 / analyse=0x3:0x133 / me=umh / subme=9 / psy=1 / psy_rd=0.80:0.00 / mixed_ref=1 / me_range=24 / chroma_me=1 / trellis=2 / 8x8dct=1 / cqm=0 / deadzone=21,11 / fast_pskip=1 / chroma_qp_offset=-2 / threads=12 / lookahead_threads=2 / sliced_threads=0 / nr=0 / decimate=0 / interlaced=0 / bluray_compat=0 / constrained_intra=0 / bframes=8 / b_pyramid=2 / b_adapt=2 / b_bias=0 / direct=3 / weightb=1 / open_gop=0 / weightp=2 / keyint=250 / keyint_min=23 / scenecut=40 / intra_refresh=0 / rc=crf / mbtree=0 / crf=15.5 / qcomp=0.70 / qpmin=0 / qpmax=60 / qpstep=4 / ip_ratio=1.40 / pb_ratio=1.30 / aq=1:0.90
Default : No
Forced : No
Audio
ID : 2
Format : Vorbis
Format settings, Floor : 1
Codec ID : A_VORBIS
Duration : 23mn 43s
Bit rate mode : Variable
Bit rate : 256 Kbps
Channel count : 2 channels
Sampling rate : 48.0 KHz
Compression mode : Lossy
Stream size : 43.4 MiB (6%)
Writing library : libVorbis (Schaufenugget) (20101101 (Schaufenugget))
Language : Japanese
Default : Yes
Forced : No

Создавать темы 07-Фев-2014 09:29

[Профиль]  [ЛС] 
Показать сообщения:    
Ответить на тему

Текущее время: 18-Дек 23:44

Часовой пояс: UTC + 5



Вы не можете начинать темы
Вы не можете отвечать на сообщения
Вы не можете редактировать свои сообщения
Вы не можете удалять свои сообщения
Вы не можете голосовать в опросах
Вы не можете прикреплять файлы к сообщениям
Вы не можете скачивать файлы