Шаг Вперёд 3 / Step Up 3D (Джон М. Чу / Jon Chu) [2010, США, драма, мелодрама, музыка, BDRip 1080p] DUB Sub rus + original eng

Ответить на тему
 

Phantomhive ®

Стаж: 4 года 2 месяца

Сообщений: 218

Симпатии: 10

Шаг Dперёд 3 / Step Up 3
«Шагни навстречу 3D»
-

Страна: США
Студия: Summit Entertainment
Жанр: Драма, Мелодрама, Музыка
Год выпуска: 2010
Продолжительность: 01:47:11-Перевод: Профессиональный (дублированный)
Cубтитры: русские, английские, румынские
Оригинальная аудиодорожка: английский-Режиссер: Джон М. Чу / Jon Chu-В ролях: Рик Маламбри (Luke), Адам Дж. Севани (Moose), Шарни Винсон (Natalie), Элисон Стоунер (Camille), Кит 'Ремеди' Сталлворт (Jacob), Кендра Эндрюс (Anala), Стивен Стэннерт (Jason), Мартин Ломбард (The Santiago Twins), Факундо Ломбард (The Santiago Twins), Орен Михаэли (Carlos), Джо Слотер (Julien), Дэниель 'Облако' Кампос (Kid Darkness)-Роли дублировали: Александр Гаврилин (Luke), Николай Быстров (Moose), Наталья Грачева (Natalie), Иван Жарков (Jason), Илья Бледный (The Santiago Twins; The Santiago Twins), Илья Хвостиков (Julien), Дмитрий Курта (Vladd), Лиза Мартиросова (Jenny Kido)-Описание: Некоторые учатся танцевать, другие рождены для этого. Люк ищет танцоров для своей команды «Пираты». В конце концов, ему встречаются Лось, поступивший в Нью-Йоркский университет, и Натали, загадочная танцовщица, которая никогда не проигрывает. Смогут ли они превзойти лучших мировых танцоров?-Бюджет: $30 000 000| Сборы в мире: $159 150 173-Качество: BDRip
Формат: MKV
Видео кодек: AVC
Аудио кодек: DTS
Видео: 1920x1080, 13045 kbps, 23.976 fps
Аудио: Русский: DTS, 6 channels, 768 kbit/s, 48 kHz
Аудио 2: Английский: DTS, 6 channels, 1510 kbit/s, 48 kHz
Формат субтитров: softsub (SRT)

MediaInfo

General
Unique ID : 173979174826830188039911091411501124943 (0x82E32B957EF7AFFF9239D4B7D02B0D4F)
Complete name : F:\Шаг Вперёд\Шаг Вперёд 3\Шаг Вперёд 3.mkv
Format : Matroska
Format version : Version 2
File size : 11.5 GiB
Duration : 1h 47mn
Overall bit rate : 15.3 Mbps
Encoded date : UTC 2010-12-15 13:13:39
Writing application : mkvmerge v4.4.0 ('Die Wiederkehr') сборка от Oct 31 2010 21:52:48
Writing library : libebml v1.0.0 + libmatroska v1.0.0
Video
ID : 1
Format : AVC
Format/Info : Advanced Video Codec
Format profile : [email protected]
Format settings, CABAC : Yes
Format settings, ReFrames : 4 frames
Codec ID : V_MPEG4/ISO/AVC
Duration : 1h 47mn
Bit rate : 13.0 Mbps
Width : 1 920 pixels
Height : 1 080 pixels
Display aspect ratio : 16:9
Frame rate mode : Constant
Frame rate : 23.976 fps
Color space : YUV
Chroma subsampling : 4:2:0
Bit depth : 8 bits
Scan type : Progressive
Bits/(Pixel*Frame) : 0.262
Stream size : 9.53 GiB (83%)
Title : Step.Up.3.2010.BluRay.1080p.DTS.x264-CHD
Writing library : x264 core 104 r1703 cd21d05
Encoding settings : cabac=1 / ref=4 / deblock=1:-3:-3 / analyse=0x3:0x113 / me=umh / subme=9 / psy=1 / psy_rd=1.10:0.15 / mixed_ref=1 / me_range=48 / chroma_me=1 / trellis=2 / 8x8dct=1 / cqm=0 / deadzone=21,11 / fast_pskip=0 / chroma_qp_offset=-2 / threads=12 / sliced_threads=0 / nr=0 / decimate=1 / interlaced=0 / constrained_intra=0 / bframes=6 / b_pyramid=2 / b_adapt=2 / b_bias=0 / direct=3 / weightb=1 / open_gop=0 / weightp=2 / keyint=250 / keyint_min=23 / scenecut=40 / intra_refresh=0 / rc_lookahead=60 / rc=2pass / mbtree=1 / bitrate=13045 / ratetol=1.0 / qcomp=0.70 / qpmin=10 / qpmax=51 / qpstep=4 / cplxblur=20.0 / qblur=0.5 / vbv_maxrate=50000 / vbv_bufsize=50000 / ip_ratio=1.40 / aq=1:0.90 / nal_hrd=none
Language : English
Default : Yes
Forced : No
Audio #1
ID : 2
Format : DTS
Format/Info : Digital Theater Systems
Mode : 16
Format settings, Endianness : Big
Codec ID : A_DTS
Duration : 1h 47mn
Bit rate mode : Constant
Bit rate : 755 Kbps
Channel(s) : 6 channels
Channel positions : Front: L C R, Side: L R, LFE
Sampling rate : 48.0 KHz
Bit depth : 24 bits
Compression mode : Lossy
Stream size : 578 MiB (5%)
Title : DTS 5.1 @ 756 kbps - Дублированный, R5
Language : Russian
Default : Yes
Forced : No
Audio #2
ID : 3
Format : DTS
Format/Info : Digital Theater Systems
Format profile : ES
Mode : 16
Format settings, Endianness : Big
Codec ID : A_DTS
Duration : 1h 47mn
Bit rate mode : Constant
Bit rate : 1 509 Kbps
Channel(s) : 6 channels
Channel positions : Front: L C R, Side: L R, LFE
Sampling rate : 48.0 KHz
Bit depth : 24 bits
Compression mode : Lossy
Stream size : 1.13 GiB (10%)
Title : DTS 5.1 @ 1536 kbps - Оригинал
Language : English
Default : No
Forced : No
Text #1
ID : 4
Format : UTF-8
Codec ID : S_TEXT/UTF8
Codec ID/Info : UTF-8 Plain Text
Language : Russian
Default : No
Forced : No
Text #2
ID : 5
Format : UTF-8
Codec ID : S_TEXT/UTF8
Codec ID/Info : UTF-8 Plain Text
Language : Romanian
Default : No
Forced : No
Text #3
ID : 6
Format : UTF-8
Codec ID : S_TEXT/UTF8
Codec ID/Info : UTF-8 Plain Text
Language : English
Default : No
Forced : No
Menu
00:00:00.000 : en:Chapter 1
00:04:30.854 : en:Chapter 2
00:09:58.681 : en:Chapter 3
00:15:26.759 : en:Chapter 4
00:20:01.784 : en:Chapter 5
00:24:44.149 : en:Chapter 6
00:29:44.199 : en:Chapter 7
00:37:10.311 : en:Chapter 8
00:41:22.271 : en:Chapter 9
00:45:44.700 : en:Chapter 10
00:49:22.084 : en:Chapter 11
00:56:06.363 : en:Chapter 12
01:00:27.624 : en:Chapter 13
01:05:34.097 : en:Chapter 14
01:12:26.801 : en:Chapter 15
01:19:02.655 : en:Chapter 16
01:24:22.766 : en:Chapter 17
01:30:23.668 : en:Chapter 18
01:35:01.696 : en:Chapter 19
01:40:01.078 : en:Chapter 20

Скриншоты

Создавать темы 07-Фев-2014 18:27

[Профиль]  [ЛС] 

Phantomhive ®

Стаж: 4 года 2 месяца

Сообщений: 218

Симпатии: 10

Для любителей смотреть HD формате!!!!

Создавать темы 07-Фев-2014 18:30

[Профиль]  [ЛС] 

Cry

Стаж: 5 лет 2 месяца

Сообщений: 40

Вот большое спасибо!!! ay

Создавать темы 07-Фев-2014 20:24

[Профиль]  [ЛС] 

Phantomhive ®

Стаж: 4 года 2 месяца

Сообщений: 218

Симпатии: 10

Cry, незашто!!! жал 4ая част филма немнога болше весит иначи бы качал!!!!

Создавать темы 08-Фев-2014 03:24

[Профиль]  [ЛС] 

sharrav

Стаж: 3 года 6 месяцев

Сообщений: 42

Симпатии: 1

Спасибо за релиз, только раздачи нету САПСЕМ.

Создавать темы 27-Дек-2014 23:07

[Профиль]  [ЛС] 
Показать сообщения:    
Ответить на тему

Текущее время: 20-Авг 09:07

Часовой пояс: UTC + 5



Вы не можете начинать темы
Вы не можете отвечать на сообщения
Вы не можете редактировать свои сообщения
Вы не можете удалять свои сообщения
Вы не можете голосовать в опросах
Вы не можете прикреплять файлы к сообщениям
Вы не можете скачивать файлы