Холостячки в Вегасе / Best Night Ever (Джейсон Фридберг, Аарон Зельцер) [2013г., Комедия, WEB-DLRip] [Чистый звук]

Ответить на тему
 

Suxrob89 ®

Стаж: 7 лет 1 месяц

Сообщений: 933

Симпатии: 564

-Холостячки в Вегасе / Best Night Ever- Год выпуска: 2013
Страна: США
Жанр: Комедия
Перевод: Дублированный [Чистый звук]
Продолжительность: 01:18:36-Режиссер: Джейсон Фридберг, Аарон Зельцер-В ролях: Дезри Холл, Саманта Колберн, Эдвина Ричард, Криста Флэнеган, Кристиан Барильяс, Джейсон Бобьен, Гайл Бранко, Хантер Драго, Мэтт Драго, Энди Фавро-О фильме: Перед тем как выйти замуж, молодая красотка отправляется с тремя лучшими подружками на свою последнюю холостяцкую вечеринку в Лас-Вегас. Все, что ни случается, к лучшему — гласит народная мудрость. Неужели это так, даже если все сумасшествие, происходящее в Лас-Вегасе, будет записано на видео?..- -Качество: WEB-DLRip
Формат: AVI
Видео: XviD, 2098 kb/s, 720x384, 25.000 fps
Аудио: AC3, 384 kb/s (2 ch), 44.1 KHz

Media info

E:\Holostyachki.2013.WEBDRip.avi
General
Complete name : E:\Holostyachki.2013.WEBDRip.avi
Format : AVI
Format/Info : Audio Video Interleave
File size : 1.37 GiB
Duration : 1h 18mn
Overall bit rate : 2 492 Kbps
Writing application : VirtualDubMod 1.5.10.3 | www.virtualdub-fr.org || (build 2550/release)
Writing library : VirtualDubMod build 2550/release
Video #0
ID : 0
Format : MPEG-4 Visual
Format profile : Advanced [email protected]
Format settings, BVOP : 2
Format settings, QPel : No
Format settings, GMC : No warppoints
Format settings, Matrix : Default (MPEG)
Codec ID : XVID
Codec ID/Hint : XviD
Duration : 1h 18mn
Bit rate : 2 098 Kbps
Width : 720 pixels
Height : 384 pixels
Display aspect ratio : 1.85:1
Frame rate : 25.000 fps
Color space : YUV
Chroma subsampling : 4:2:0
Bit depth : 8 bits
Scan type : Progressive
Compression mode : Lossy
Bits/(Pixel*Frame) : 0.304
Stream size : 1.15 GiB (84%)
Writing library : XviD 1.2.1 (UTC 2008-12-04)
Audio #1
ID : 1
Format : AC-3
Format/Info : Audio Coding 3
Mode extension : CM (complete main)
Format settings, Endianness : Big
Codec ID : 2000
Duration : 1h 18mn
Bit rate mode : Constant
Bit rate : 384 Kbps
Channel count : 2 channels
Channel positions : Front: L R
Sampling rate : 44.1 KHz
Bit depth : 16 bits
Compression mode : Lossy
Stream size : 216 MiB (15%)
Alignment : Split accross interleaves
Interleave, duration : 40 ms (1.00 video frame)
Interleave, preload duration : 500 ms

Скриншоты

Создавать темы 08-Фев-2014 07:49

[Профиль]  [ЛС] 

nicropalas

Стаж: 6 лет 8 месяцев

Сообщений: 8

Хорошее кино.

Создавать темы 08-Фев-2014 07:56

[Профиль]  [ЛС] 

TimaK

Стаж: 6 лет 4 месяца

Сообщений: 129

Симпатии: 23

3ий скрын берёт за горло)

Создавать темы 08-Фев-2014 22:23

[Профиль]  [ЛС] 

jama97

Стаж: 5 лет

Сообщений: 18

Симпатии: 2

когда будет лицуха?

Создавать темы 08-Фев-2014 22:44

[Профиль]  [ЛС] 

Jnec

Стаж: 4 года 10 месяцев

Сообщений: 165

Спасибо!!!

Создавать темы 11-Фев-2014 00:39

[Профиль]  [ЛС] 

zokirg

Стаж: 4 года 7 месяцев

Сообщений: 4

Симпатии: 1

чё-то после первого удачного мальчишника, все рванули в вегас ))

Создавать темы 28-Фев-2014 23:55

[Профиль]  [ЛС] 

nico3500

Стаж: 4 года 8 месяцев

Сообщений: 99

Симпатии: 6

Угарная комедия. Но 18+ слишком много обнаженки, причем мужской. А так тупой американский юмор в лучшем своем исполнении.

Создавать темы 03-Мар-2014 20:12

[Профиль]  [ЛС] 

bes_t

Стаж: 6 лет 5 месяцев

Сообщений: 74

Симпатии: 11

хм... странно, судя по комментам многим понравилось((( видимо, когда кровью блюют - это реально смешно(((
в штатах наверняка фильм запрещен, а мы смотрим, радуемся, а потом удивляемся жестокости и цинизму

Создавать темы 06-Май-2014 11:10

[Профиль]  [ЛС] 
Показать сообщения:    
Ответить на тему

Текущее время: 21-Сен 01:00

Часовой пояс: UTC + 5



Вы не можете начинать темы
Вы не можете отвечать на сообщения
Вы не можете редактировать свои сообщения
Вы не можете удалять свои сообщения
Вы не можете голосовать в опросах
Вы не можете прикреплять файлы к сообщениям
Вы не можете скачивать файлы