Вечеринка мёртвых: Пропавшая запись / Corpse Party: Missing Footage (Иванага Акира) [OVA] [1 из 1] [без хардсаба] [RUS(ext), JAP+SUB] [2012 г., приключения, BDRip] [1080p]

Ответить на тему
 

Alex_38 ®

Стаж: 5 лет 5 месяцев

Сообщений: 336

Симпатии: 37

Оригинальное название: コープスパーティー Missing Footage
Английское название: Corpse Party Missing Footage
Русское название: Вечеринка мёртвых: пропавшая запись-Год выпуска: 2012
Страна: Япония
Жанр: приключения
Продолжительность: 1 эп. 12 мин.
Премьера: 02.08.2012-Перевод:
  • русские субтитры от Stan WarHammer, Iby, Nesitach (полные вспомогательные)
-Озвучка:
  • двухголосая (муж./жен.) от loster01 & Emeri (L3)
-Режиссер: Иванага Акира
Автор оригинала: Кэдоин Макото
Студия: asread-Описание:
Бонус к эксклюзивному ограниченному изданию игры "Corpse Party -The Anthology"
Сюжет крутится вокруг группы школьников, которые решили провести обряд, чтобы скрепить свою дружбу навечно. Однако они вызывают злого духа, который в прошлом многих убил, а одна из жертв стала призраком, блуждающим в школе.-Информационные ссылки: AniDB || World Art || MAL-Качество: BDRip
Энкод: AniPower
Тип видео: без хардсаба
Формат: mkv
Видео: x264 (Hi10p), 1920x1080, ~10.0 Mbps, 23.976 fps
Аудио JAP: Vorbis, 48000Hz, ~192 Kbps, 2ch
Аудио RUS: AC3, 48000Hz, ~192 Kbps, 2ch (внешними файлами)
-

Подробные тех. данные

General
Unique ID                                : 179689808802286071949743101308262032757 (0x872EFF93B1336ACAA2D45A4CD92A2575)
Complete name                            : D:\Релизы\Собственные\Релизы\Corpse Party - Missing Footage [BD] [1080p]\[AniPower] Corpse Party - Missing Footage [BDrip 1920x1080 x264 Vorbis].mkv
Format                                   : Matroska
Format version                           : Version 4 / Version 2
File size                                : 856 MiB
Duration                                 : 11mn 27s
Overall bit rate                         : 10.4 Mbps
Encoded date                             : UTC 2014-02-08 13:57:18
Writing application                      : mkvmerge v6.6.0 ('The Edge Of The In Between') built on Dec 18 2013 23:19:42
Writing library                          : libebml v1.3.0 + libmatroska v1.4.1
Video
ID                                       : 1
Format                                   : AVC
Format/Info                              : Advanced Video Codec
Format profile                           : High [email protected]
Format settings, CABAC                   : Yes
Format settings, ReFrames                : 10 frames
Codec ID                                 : V_MPEG4/ISO/AVC
Duration                                 : 11mn 27s
Bit rate                                 : 10.0 Mbps
Width                                    : 1 920 pixels
Height                                   : 1 080 pixels
Display aspect ratio                     : 16:9
Frame rate mode                          : Constant
Frame rate                               : 23.976 fps
Color space                              : YUV
Chroma subsampling                       : 4:2:0
Bit depth                                : 10 bits
Scan type                                : Progressive
Bits/(Pixel*Frame)                       : 0.202
Stream size                              : 823 MiB (96%)
Writing library                          : x264 core 125 r2200+666+30 20c70fc tMod [[email protected]:2:0 X86]
Encoding settings                        : cabac=1 / ref=10 / deblock=1:-2:-2 / analyse=0x3:0x133 / me=umh / subme=11 / psy=1 / fade_compensate=0.00 / psy_rd=0.60:0.00 / mixed_ref=1 / me_range=48 / chroma_me=1 / trellis=2 / 8x8dct=1 / cqm=0 / deadzone=21,11 / fast_pskip=1 / chroma_qp_offset=-2 / threads=18 / lookahead_threads=3 / sliced_threads=0 / nr=0 / decimate=1 / interlaced=0 / bluray_compat=0 / constrained_intra=0 / fgo=0 / bframes=11 / b_pyramid=2 / b_adapt=2 / b_bias=0 / direct=3 / weightb=1 / open_gop=0 / weightp=2 / keyint=600 / keyint_min=1 / scenecut=40 / intra_refresh=0 / rc=crf / mbtree=0 / crf=16.0000 / qcomp=0.60 / qpmin=8 / qpmax=36 / qpstep=9 / ip_ratio=1.40 / pb_ratio=1.30 / aq=4:1.00
Language                                 : Japanese
Default                                  : Yes
Forced                                   : No
Audio
ID                                       : 2
Format                                   : AC-3
Format/Info                              : Audio Coding 3
Mode extension                           : CM (complete main)
Format settings, Endianness              : Big
Codec ID                                 : A_AC3
Duration                                 : 11mn 27s
Bit rate mode                            : Constant
Bit rate                                 : 192 Kbps
Channel(s)                               : 2 channels
Channel positions                        : Front: L R
Sampling rate                            : 48.0 KHz
Bit depth                                : 16 bits
Compression mode                         : Lossy
Stream size                              : 15.7 MiB (2%)
Title                                    : Original
Language                                 : Japanese
Default                                  : Yes
Forced                                   : No

Скриншоты

-


Последний раз редактировалось: Alex_38 (2014-02-08 22:30), всего редактировалось 1 раз

Создавать темы 08-Фев-2014 21:25

[Профиль]  [ЛС] 

Phantomhive

Стаж: 4 года 2 месяца

Сообщений: 218

Симпатии: 10

Жал у этого OVA нет ПРОДА!!!

Создавать темы 08-Фев-2014 21:32

[Профиль]  [ЛС] 
Показать сообщения:    
Ответить на тему

Текущее время: 22-Авг 23:52

Часовой пояс: UTC + 5



Вы не можете начинать темы
Вы не можете отвечать на сообщения
Вы не можете редактировать свои сообщения
Вы не можете удалять свои сообщения
Вы не можете голосовать в опросах
Вы не можете прикреплять файлы к сообщениям
Вы не можете скачивать файлы