Вечеринка мёртвых: Истязаемые души / Corpse Party: Tortured Souls (Иванага Акира) [OVA] [4 из 4] [без хардсаба] [RUS(ext), JAP+SUB] [2013 г., триллер, ужасы, BDRip] [720p]

Ответить на тему
 

Alex_38 ®

Стаж: 5 лет 9 месяцев

Сообщений: 336

Симпатии: 37

- Год выпуска: 2013
Страна: Япония
Жанр: триллер, ужасы
Продолжительность: 4 эп. по 30 мин.
Премьера: 24.07.2013-Перевод:
  • русские субтитры от GMC (полные вспомогательные)
    редакторы: Schum, Nerevar, Tassadar, переводчик: St_Ranger
-Озвучка:
  • одноголосая (жен.) от Persona99 (GetSmart)
  • двухголосая (муж./жен.) от DemonOFmooN & MezIdA (Anifilm)
-Режиссер: Иванага Акира
Студия: asread-Описание:
Начальная школа Тензин была закрыта много лет назад после череды загадочных исчезновений и жестоких убийств. На месте этой школы была построена Академия Кисараги, в которой учится Сатоши Мочида и его друзья. Оставшись в школе после фестиваля, компания решила провести один ритуал – разорвать бумажную куклу. По слухам, те, кто сделают так, "навсегда останутся вместе". Но, после того как они разорвали куклу, произошло то, чего никто не ожидал. Пол в классе проваливается из-за внезапного землетрясения, и каждый из друзей оказывается в одиночестве в тёмной и полуразрушенной школе. Но это уже не Академия Кисараги, а мрачная и зловещая школа Теншин, по которой до сих пор бродят души убитых…-Информационные ссылки: AniDB || World Art || MAL-Качество: BDRip
Энкод: Winter - RG Pantheon
Тип видео: без хардсаба
Формат: mkv
Видео: x264 (Hi10p), 1280x720, ~4000 Kbps, 23.976 fps
Аудио JAP: Vorbis, 48000Hz, ~256 Kbps, 2ch
Аудио RUS 1: AC3, 48000Hz, ~192 Kbps, 2ch (внешними файлами)
Аудио RUS 2: AC3, 48000Hz, ~192 Kbps, 2ch (внешними файлами)
-

Список эпизодов

1. Multiple Separation
2. Hinged Break
3. Unreachable Feelings
4. Sorrowful Truth

Подробные тех. данные

General
Unique ID                                : 214318535784791080051909323259502824306 (0xA13C3FA2513B77A899B0736A6E968B72)
Complete name                            : D:\Релизы\Собственные\Релизы\Corpse Party - Tortured Souls [BD] [720p]\[Winter] Corpse Party - Tortured Souls 1 [BDrip 1280x720 x264 Vorbis].mkv
Format                                   : Matroska
Format version                           : Version 2
File size                                : 848 MiB
Duration                                 : 29mn 17s
Overall bit rate mode                    : Variable
Overall bit rate                         : 4 049 Kbps
Encoded date                             : UTC 2013-10-07 16:41:16
Writing application                      : mkvmerge v2.9.8 ('C'est le bon') built on Aug 13 2009 12:49:06
Writing library                          : libebml v0.7.7 + libmatroska v0.8.1
Video
ID                                       : 1
Format                                   : AVC
Format/Info                              : Advanced Video Codec
Format profile                           : High [email protected]
Format settings, CABAC                   : Yes
Format settings, ReFrames                : 9 frames
Codec ID                                 : V_MPEG4/ISO/AVC
Duration                                 : 29mn 17s
Bit rate                                 : 3 712 Kbps
Width                                    : 1 280 pixels
Height                                   : 720 pixels
Display aspect ratio                     : 16:9
Frame rate mode                          : Constant
Frame rate                               : 23.976 fps
Color space                              : YUV
Chroma subsampling                       : 4:2:0
Bit depth                                : 10 bits
Scan type                                : Progressive
Bits/(Pixel*Frame)                       : 0.168
Stream size                              : 778 MiB (92%)
Writing library                          : x264 core 132 r2309 3b1f1f7
Encoding settings                        : cabac=1 / ref=9 / deblock=1:-2:-2 / analyse=0x3:0x133 / me=umh / subme=9 / psy=1 / psy_rd=0.90:0.00 / mixed_ref=1 / me_range=24 / chroma_me=1 / trellis=2 / 8x8dct=1 / cqm=0 / deadzone=21,11 / fast_pskip=1 / chroma_qp_offset=-2 / threads=6 / lookahead_threads=1 / sliced_threads=0 / nr=0 / decimate=0 / interlaced=0 / bluray_compat=0 / constrained_intra=0 / bframes=8 / b_pyramid=2 / b_adapt=2 / b_bias=0 / direct=1 / weightb=1 / open_gop=0 / weightp=2 / keyint=250 / keyint_min=23 / scenecut=40 / intra_refresh=0 / rc=crf / mbtree=0 / crf=19.0 / qcomp=0.70 / qpmin=9 / qpmax=42 / qpstep=4 / ip_ratio=1.40 / pb_ratio=1.30 / aq=1:0.90
Default                                  : No
Forced                                   : No
Audio
ID                                       : 2
Format                                   : Vorbis
Format settings, Floor                   : 1
Codec ID                                 : A_VORBIS
Duration                                 : 29mn 17s
Bit rate mode                            : Variable
Bit rate                                 : 256 Kbps
Channel(s)                               : 2 channels
Sampling rate                            : 48.0 KHz
Compression mode                         : Lossy
Stream size                              : 53.6 MiB (6%)
Writing library                          : libVorbis (Omnipresent) (20120203 (Omnipresent))
Language                                 : Japanese
Default                                  : Yes
Forced                                   : No

Скриншоты

-

Создавать темы 08-Фев-2014 22:21

[Профиль]  [ЛС] 
Показать сообщения:    
Ответить на тему

Текущее время: 17-Дек 09:22

Часовой пояс: UTC + 5



Вы не можете начинать темы
Вы не можете отвечать на сообщения
Вы не можете редактировать свои сообщения
Вы не можете удалять свои сообщения
Вы не можете голосовать в опросах
Вы не можете прикреплять файлы к сообщениям
Вы не можете скачивать файлы