Снимая девушек / Фото-подружки / Photo Kano (Ёкояма Акитоси) [TV] [13 из 13] [без хардсаба] [RUS(ext), JAP+SUB] [2013 г., комедия, этти, романтика, школа, сёнэн, BDRip] [720p]

Ответить на тему
 

MeiDoCorpse ®

Стаж: 4 года 5 месяцев

Сообщений: 222

Симпатии: 14

- Год выпуска: 2013
Страна: Япония
Жанр: комедия, этти, романтика, школа, сёнэн
Продолжительность: ТВ | 13 эп. по 25 мин.-Режиссёр: Ёкояма Акитоси
Сценарий: Ёкояма Акитоси
Студия: Mad House-Описание:
Кадзуя Маэда к 16 годам перепробовал несколько типичных для молодого парня занятий, но ни в одном из них особо не преуспел. В академии Хикарикава учебой не напрягают, при этом проявить себя можно во множестве клубов, но Маэда уже начал свыкаться с мыслью, что навечно завяз в болоте посредственности. Все изменилось с началом второго года старшей школы – ведь на летних каникулах отец подарил Кадзуе свою старую «цифровую зеркалку». Теперь герой вступил в ряды фотохудожников, и взгляд на мир через объектив наконец-то открыл ему правду жизни!
А правда в том, что мир вокруг полон прелестных созданий, и родная школа – не исключение. При этом, если просто так подойти к незнакомой девушке или начать слишком пристально разглядывать знакомую – ты хам и извращенец, а если с классным фотоаппаратом – ты творец, готовый явить миру еще неведомую ему красоту. В каждой женщине живет Галатея – и неважно, родная ли это сестренка, старая ли подруга или недосягаемая королева. В общем, Кадзуя получил уникальный шанс, а уж мы-то знаем, что он им воспользуется по полной программе!
© Hollow, World Art-Cсылки: Официальная страница || AniDB || World Art || MAL-Качество: BDRip
Энкод: Winter
Контейнер: mkv
Тип видео: Без хардсаба
Наличие линковки: Нет
Видео: x264 (Hi10p), 1280x720, ~2800 Kbps, 23.976 fps
Аудио: Japanese, Vorbis, 48000Hz, ~256 Kbps, 2ch, в составе контейнера
Аудио: Russian, AC3, 48000Hz, ~192 Kbps, 2ch, внешними файлами | двухголосая от Zendos & Eladiel
Субтитры: Russian, ASS, внешними файлами | перевод от Onyazuka-

Список эпизодов

01. Encounter
02. Academy Heaven
03. Profusion of Flowers
04. My Feelings Henceforth
05. Mismatched Romance
06. These Feelings Are Vastly...
07. Star`s Smile
08. Gaze into Her True Face
09. A Letter of Challenge for Love
10. An Angel`s Dance
11. The School Bride
12. Photograph Memory
13. Mutual Feelings

Скриншоты

Подробные тех. данные

General
Unique ID : 176759132886968819725014211290172579716 (0x84FA92193468E32C80EE7FAAD69D5F84)
Complete name : ***\Photo Kano [BD] [720p]\[Winter] Photo Kano 01 [BDrip 1280x720 x264 Vorbis].mkv
Format : Matroska
Format version : Version 2
File size : 504 MiB
Duration : 24mn 11s
Overall bit rate mode : Variable
Overall bit rate : 2 911 Kbps
Encoded date : UTC 2013-07-05 13:49:18
Writing application : mkvmerge v2.9.8 ('C'est le bon') built on Aug 13 2009 12:49:06
Writing library : libebml v0.7.7 + libmatroska v0.8.1
Video
ID : 1
Format : AVC
Format/Info : Advanced Video Codec
Format profile : High [email protected]
Format settings, CABAC : Yes
Format settings, ReFrames : 9 frames
Codec ID : V_MPEG4/ISO/AVC
Duration : 24mn 11s
Bit rate : 2 597 Kbps
Width : 1 280 pixels
Height : 720 pixels
Display aspect ratio : 16:9
Frame rate mode : Constant
Frame rate : 23.976 fps
Color space : YUV
Chroma subsampling : 4:2:0
Bit depth : 10 bits
Scan type : Progressive
Bits/(Pixel*Frame) : 0.118
Stream size : 449 MiB (89%)
Writing library : x264 core 132 r2309 3b1f1f7
Encoding settings : cabac=1 / ref=9 / deblock=1:-2:-2 / analyse=0x3:0x133 / me=umh / subme=9 / psy=1 / psy_rd=0.90:0.00 / mixed_ref=1 / me_range=24 / chroma_me=1 / trellis=2 / 8x8dct=1 / cqm=0 / deadzone=21,11 / fast_pskip=1 / chroma_qp_offset=-2 / threads=6 / lookahead_threads=1 / sliced_threads=0 / nr=0 / decimate=0 / interlaced=0 / bluray_compat=0 / constrained_intra=0 / bframes=8 / b_pyramid=2 / b_adapt=2 / b_bias=0 / direct=1 / weightb=1 / open_gop=0 / weightp=2 / keyint=250 / keyint_min=23 / scenecut=40 / intra_refresh=0 / rc=crf / mbtree=0 / crf=15.8 / qcomp=0.70 / qpmin=9 / qpmax=40 / qpstep=4 / ip_ratio=1.40 / pb_ratio=1.30 / aq=1:0.90
Default : No
Forced : No
Audio
ID : 2
Format : Vorbis
Format settings, Floor : 1
Codec ID : A_VORBIS
Duration : 24mn 11s
Bit rate mode : Variable
Bit rate : 256 Kbps
Channel count : 2 channels
Sampling rate : 48.0 KHz
Compression mode : Lossy
Stream size : 44.3 MiB (9%)
Writing library : libVorbis (Schaufenugget) (20101101 (Schaufenugget))
Language : Japanese
Default : Yes
Forced : No

Создавать темы 09-Фев-2014 13:36

[Профиль]  [ЛС] 
Показать сообщения:    
Ответить на тему

Текущее время: 24-Окт 09:14

Часовой пояс: UTC + 5



Вы не можете начинать темы
Вы не можете отвечать на сообщения
Вы не можете редактировать свои сообщения
Вы не можете удалять свои сообщения
Вы не можете голосовать в опросах
Вы не можете прикреплять файлы к сообщениям
Вы не можете скачивать файлы