[MacProVideo] Richard Lainhart: Advanced Synthesis [09.08.2010, RUS]

Ответить на тему
 

Nukus ®

Стаж: 5 лет 8 месяцев

Сообщений: 74

Симпатии: 7

Richard Lainhart: Advanced Synthesis-Продвинутые техники синтеза звука- Дата выпуска: Aug 9th, 2010
Производитель: MacProVideo
Автор перевода: @ndrews
Автор: Richard Lainhart
Продолжительность: 126 minutes
Тип раздаваемого материала: Видеоурок
Язык: Русский
Описание: Курс ”Техники синтеза звука” содержит 26 роликов по следующим темам: модуль sample and hold (выборки и хранения), кольцевая модуляция и сдвиг частоты, синхронизация осциляторов, модуляция ширины импульса и кроссмодуляция.
Автор курса Ричард Лэнхарт, активно выступающий в США музыкант, в доступной форме объясняет сложные концепции. Видео из разряда “должно быть”.
Первый, вступительный, не переводился т.к. не несет никакой полезной информации.
Delve deeply into the complex world of Advanced Synthesis and learn how to create your own evocative and evolving soundscapes, from scratch!
Our resident synthesist and electronic music performance artist, Richard Lainhart, is back with his extraordinary exploration into advanced sound synthesis. We asked Richard to put his amazing Buchla away for little while so he’d have time to create what we think is the “must have” video tome for anyone looking delve deeper into how synthesizers convert electricity into sound waves.
Richard carefully explains all the different kinds of additive synthesis from “ring modulation” to powerful “FM” and “cross modulation” techniques that can turn simple sine waves into powerful noise generators popular in the performance art and electronic music scene.
So if your looking to gain a deeper understanding of concepts that form the complex world of analog synthesis lend an eye and ear or two to this fantastic new tutorial by Richard Lainhart: Advanced Sound Synthesis.-

Содержание

1. Введение. ( не переводился, т.к. не несет полезной информации)
2. Что такое sample and hold (устройство выборки и хранения).
3. Принцип работы устройства выборки и хранения.
4. Ступенчатый сигнал.
5. Модуль выборки и хранения с различными значениями тактовой частоты.
6. Функция Glide (скольжение).
7. Создание звуков случайной высоты с помощью модуля выборки и хранения
8. Использование модуля выборки и хранения для создания бас линий
9. Кольцевая модуляция. Введение
10. Как работает кольцевая модуляция
11. Модуляция кольцевого модулятора.
12. Кольцевая модуляция человеческого голоса
13. Кольцевая модуляция электропиано
14. Электрогитара с римтической кольцевой модуляцией
15. Сдвигатель частоты
16. Синхронизация осциляторов. Введение.
17. Синхронизации осциляторов. Описание.
18. Жесткая синхронизация (hard sync) квадратного сигнала.
19. Синхронизация пилообразного сигнала и мягкая синхронизация (soft sync).
20. Синхронизация осциллятора с изменяемой частотой.
21. Cинхронизация осциляторов. Модуляция с помощью модуля выборки и хранения, и огибающей.
22. Широтно-импульсная модуляция. Введение.
23. Модуляция ширины импульса с помощью LFO.
24. Генератор огибающей и частотная модуляция ширины импульса. Часть 1.
25. Генератор огибающей и частотная модуляция ширины импульса. Часть 2.
26. Кроссмодуляция.
27. Различные варианты кроссмодуляции-Chapter 1: Advanced Synthesis
1: Introducing Sample & Hold
01:21
01. Introduction to Advanced Sound Synthesis
03:51
02. What is Sample and Hold?
2: How Sample & Hold Works
05:16
03. Sample and Hold Explained
03:59
04. Staircase Waveforms
03:41
05. Sample and Hold with Varying Clock Rates
02:21
06. Sample and Hold Glide
3: Musical Applications for S&H
04:45
07. Randomizing Pitch with Sample and Hold
05:56
08. Using Sample and Hold for Bass Lines
Chapter 2: Ring Modulation
4: Ring Mod Basics
06:15
09. Introduction to Ring Modulation
03:46
10. How Ring Modulation Works
05:55
11. Modulation the Ring Modulator
5: Ring Modding External Sources
02:54
12. Ring Modulating the Human Voice
02:32
13. Ring Modulating an Electric Piano
04:24
14. The Electric Guitar with Rhythmic Ring Modulation
6: Frequency Shifting
05:27
15. The Frequency Shifter
Chapter 3: Oscillator Sync
7: Technical Aspects of Oscillator Sync
03:44
16. An introduction to Oscillator Sync
05:35
17. Oscillator Sync Described
04:54
18. Syncing a Square Wave
04:59
19. Sawtooth Oscillator Sync and Soft Oscillator Sync
8: Musical Aspects of Oscillator Sync
07:30
20. Sweeping Oscillator Sync
06:25
21. Sweeping Oscillator Sync with Sample and Hold and E...
Chapter 4: Pulse Width Modulation
9: Pulse Width Modulation Explained
06:41
22. An Introduction to Pulse Width Modulation
10: Pulse Width Modulation Applied
03:16
23. LFO Pulse Width Modulation
06:49
24. Envelope Generator and FM Pulse Width Modulation Pa...
02:46
25. Envelope Generator and FM Pulse Width Modulation Pa...
11: Cross Modulation
05:00
26. What is Cross Modulation
05:01
27. Variations on Cross Modulation
Файлы примеров: не предусмотрены
Формат видео: MOV-MP4
Инфо:

Видео:

Video
ID : 2
Format : AVC
Format/Info : Advanced Video Codec
Format profile : [email protected]
Format settings, CABAC : Yes
Format settings, ReFrames : 5 frames
Codec ID : avc1
Codec ID/Info : Advanced Video Coding
Duration : 5mn 55s
Bit rate mode : Variable
Bit rate : 382 Kbps
Width : 960 pixels
Height : 540 pixels
Display aspect ratio : 16:9
Original display aspect ratio : 1.616
Frame rate mode : Constant
Frame rate : 20.000 fps
Original frame rate : 10.000 fps
Standard : NTSC
Color space : YUV
Chroma subsampling : 4:2:0
Bit depth : 8 bits
Scan type : Interlaced
Scan order : Bottom Field First
Bits/(Pixel*Frame) : 0.037
Stream size : 16.2 MiB (79%)
Language : English
Encoded date : UTC 2011-07-24 15:38:44
Tagged date : UTC 2011-07-24 15:38:44

Аудио:

Audio
ID : 1
Format : AAC
Format/Info : Advanced Audio Codec
Format profile : LC
Codec ID : 40
Duration : 5mn 54s
Bit rate mode : Constant
Bit rate : 96.0 Kbps
Channel(s) : 2 channels
Channel positions : Front: L R
Sampling rate : 44.1 KHz
Compression mode : Lossy
Stream size : 4.06 MiB (20%)
Language : English
Encoded date : UTC 2011-07-24 15:38:44
Tagged date : UTC 2011-07-24 15:38:44

Скриншоты:



Создавать темы 09-Фев-2014 22:59

[Профиль]  [ЛС] 
Показать сообщения:    
Ответить на тему

Текущее время: 20-Окт 12:09

Часовой пояс: UTC + 5



Вы не можете начинать темы
Вы не можете отвечать на сообщения
Вы не можете редактировать свои сообщения
Вы не можете удалять свои сообщения
Вы не можете голосовать в опросах
Вы не можете прикреплять файлы к сообщениям
Вы не можете скачивать файлы