Nine Inch Nails Live - Tension 2013 (November 8, 2013) [2013 г., Industrial/Electronic, BDRip]

Ответить на тему
 

VRHeart ®

Стаж: 4 года 9 месяцев

Сообщений: 136

Симпатии: 7

Nine Inch Nails Live
Tension 2013
(November 8, 2013)


Год выпуска: 2013
Страна: USA, Los Angeles
Жанр: Industrial/Electronic
Продолжительность: 01:17:07-Setlist:
Copy Of A
March Of The Pigs
Piggy
All Time Low
Disappointed
Came Back Haunted
Sanctified
In Two
The Big Come Down
The Hand That Feeds
Head Like A Hole
Even Deeper
While I'm Still Here
Hurt-2013 Null Corporation, under exclusive license to Columbia Records, a Division of Sony Music Entertainment.-Качество: BDRip
Формат: MP4
Видео кодек: Advanced Video Codec ([email protected])
Аудио кодек: Advanced Audio Codec (LC)
Видео: 1280x720, Variable Bit Rate, 23.976 fps
Аудио: Lossy, Variable Bit Rate, 44kHz, 2 channels

Mediainfo

General
Complete name : I:\Downloads\VEVO Presents Tension 2013 Live.mp4
Format : MPEG-4
Format profile : Base Media / Version 2
Codec ID : mp42
File size : 1.19 GiB
Duration : 1h 17mn
Overall bit rate : 2 205 Kbps
Encoded date : UTC 2013-12-04 01:24:06
Tagged date : UTC 2013-12-04 01:24:06
gsst : 0
gstd : 4627805
gssd : BC07AB946HH1386367739290435
gshh : r3---sn-hxgpu-a5oe.googlevideo.com
Video
ID : 1
Format : AVC
Format/Info : Advanced Video Codec
Format profile : [email protected]
Format settings, CABAC : Yes
Format settings, ReFrames : 1 frame
Codec ID : avc1
Codec ID/Info : Advanced Video Coding
Duration : 1h 17mn
Bit rate mode : Variable
Bit rate : 2 011 Kbps
Maximum bit rate : 9 550 Kbps
Width : 1 280 pixels
Height : 720 pixels
Display aspect ratio : 16:9
Frame rate mode : Constant
Frame rate : 23.976 fps
Color space : YUV
Chroma subsampling : 4:2:0
Bit depth : 8 bits
Scan type : Progressive
Bits/(Pixel*Frame) : 0.091
Stream size : 1.08 GiB (91%)
Tagged date : UTC 2013-12-04 01:27:32
Audio
ID : 2
Format : AAC
Format/Info : Advanced Audio Codec
Format profile : LC
Codec ID : 40
Duration : 1h 17mn
Bit rate mode : Variable
Bit rate : 192 Kbps
Maximum bit rate : 201 Kbps
Channel(s) : 2 channels
Channel positions : Front: L R
Sampling rate : 44.1 KHz
Compression mode : Lossy
Stream size : 106 MiB (9%)
Title : IsoMedia File Produced by Google, 5-11-2011
Encoded date : UTC 2013-12-04 01:26:32
Tagged date : UTC 2013-12-04 01:27:32

Скриншоты

Создавать темы 10-Фев-2014 21:13

[Профиль]  [ЛС] 
Показать сообщения:    
Ответить на тему

Текущее время: 17-Авг 04:49

Часовой пояс: UTC + 5



Вы не можете начинать темы
Вы не можете отвечать на сообщения
Вы не можете редактировать свои сообщения
Вы не можете удалять свои сообщения
Вы не можете голосовать в опросах
Вы не можете прикреплять файлы к сообщениям
Вы не можете скачивать файлы