Стрелок с Чёрной скалы / Black Rock Shooter (Ёсиока Синобу) [TV] [8 из 8] [без хардсаба] [JAP+SUB] [2012 г., драма, мистика, BDRip] [720p]

Ответить на тему
 

Vergil ®

Стаж: 6 лет 3 месяца

Сообщений: 689

- Год выпуска: 2012
Страна: Япония
Жанр: драма, мистика
Продолжительность: 8 эп. по ~24 мин.-Режиссер: Ёсиока Синобу
Студия: Ordet-Описание: Жить в обществе и быть свободным от общества нельзя. Но хотя строить взаимоотношения непросто, уйти от этого не получится, а готовых рецептов нет. Нужен ли ты кому-то или обречен на одиночество? Что такое дружба – равный союз или подчинение? Можно ли, приближая одного, не отталкивать другого? Кем лучше быть – ведущим или ведомым? Мато и Ёми, Ю и Кагари - обычные ученицы средней школы – тоже ищут ответы на непростые вопросы, мучаясь неизвестностью, страдая от непонимания, страшась неудачи. Но этот путь каждый должен пройти сам, не надеясь на школьного психолога и ее кофе-машину!
А тем временем в мире снов живут отражения героинь – загадочный Стрелок Черной скалы, трагическая Хозяйка Мертвых, обманчивая с виду Мощь, стремительная Возница и совсем уж странная Пила Черного Золота. Сталкиваясь и сражаясь друг с другом, альтер-эго решают проблемы хозяек, поднимая на свет нечто из темных глубин подсознания, помогая отбросить никчемное и понять главное. Недаром еще древние считали, что добрая драка – лучший способ облегчить душу, или, говоря современным языком, провести рационализацию комплексов. Вот только с черным кофе не надо перебарщивать!
© Hollow, World Art-Информационные ссылки: AniDB || World Art || MAL-Качество: BDRip | Yousei-raws | #[email protected] rizon. net
Формат: mkv
Видео: x264 (Hi10p), 1280x720, ~3500 Kbps, 23.976 fps
Аудио: JAP Vorbis, 48000Hz, ~256 Kbps, 2ch
Перевод:
  • русские субтитры от Dreamers Team (полные/вспомогательные)
    переводчик: Rain lover, редактор: Yuri L. Hyugo, оформление: DARio
  • русские субтитры от Pengui
    переводчики: victori и xen0n, редактор: hunniedesy, оформление: StormS

Список эпизодов

01. How Much More Do I Have to Scream?
02. Dawn Envelopes the Sky
03. Tears Held Back Threaten to Spill Over
04. The World I Once Dreamt of Closes
05. Black Rock Shooter
06. Hope That Time There Shouldn`t Have Been Any
07. Make a Wish on a Star Racing Through the Darkness
08. Let`s Go Beyond This World

Скриншоты

Отличия от других раздач

http://tas-ix.net/viewtopic.php?t=41135
- BDRip

Подробные тех. данные

Общее
Уникальный идентификатор : 207453975784954574408619518498883482174 (0x9C122EB21217B1F38FC206A305DBB23E)
Полное имя : W:\ANIMATION\720p\Black Rock Shooter TV [BD] [720p]\[Yousei-raws] Black Rock Shooter 1 [BDrip 1280x720 x264 Vorbis].mkv
Формат : Matroska
Версия формата : Version 2
Размер файла : 755 Мбайт
Продолжительность : 23 м.
Режим общего битрейта : Переменный
Общий поток : 4541 Кбит/сек
Дата кодирования : UTC 2012-07-04 10:33:31
Программа кодирования : mkvmerge v2.9.7 ('Tenderness') built on Jul 1 2009 18:43:35
Библиотека кодирования : libebml v0.7.7 + libmatroska v0.8.1
Видео
Идентификатор : 1
Формат : AVC
Формат/Информация : Advanced Video Codec
Профиль формата : High [email protected]
Параметр CABAC формата : Да
Параметр ReFrames формата : 9 кадров
Идентификатор кодека : V_MPEG4/ISO/AVC
Продолжительность : 23 м.
Битрейт : 4194 Кбит/сек
Ширина : 1280 пикселей
Высота : 720 пикселей
Соотношение сторон : 16:9
Режим частоты кадров : Постоянный
Частота кадров : 23,976 кадра/сек
Цветовое пространство : YUV
Субдискретизация насыщенности : 4:2:0
Битовая глубина : 10 бит
Тип развёртки : Прогрессивная
Бит/(Пиксели*Кадры) : 0.190
Размер потока : 698 Мбайт (92%)
Библиотека кодирования : x264 core 125 r2200 999b753
Настройки программы : cabac=1 / ref=9 / deblock=1:-2:-2 / analyse=0x3:0x133 / me=umh / subme=9 / psy=1 / psy_rd=0.90:0.00 / mixed_ref=1 / me_range=24 / chroma_me=1 / trellis=2 / 8x8dct=1 / cqm=0 / deadzone=21,11 / fast_pskip=1 / chroma_qp_offset=-2 / threads=6 / lookahead_threads=1 / sliced_threads=0 / nr=0 / decimate=0 / interlaced=0 / bluray_compat=0 / constrained_intra=0 / bframes=8 / b_pyramid=2 / b_adapt=2 / b_bias=0 / direct=1 / weightb=1 / open_gop=0 / weightp=2 / keyint=250 / keyint_min=23 / scenecut=40 / intra_refresh=0 / rc=crf / mbtree=0 / crf=16.0 / qcomp=0.70 / qpmin=9 / qpmax=42 / qpstep=4 / ip_ratio=1.40 / pb_ratio=1.30 / aq=1:0.90
Default : Да
Forced : Нет
Аудио
Идентификатор : 2
Формат : Vorbis
Параметр Floor формата : 1
Идентификатор кодека : A_VORBIS
Продолжительность : 23 м.
Вид битрейта : Переменный
Битрейт : 256 Кбит/сек
Каналы : 2 канала
Частота : 48,0 КГц
Метод сжатия : С потерями
Размер потока : 42,6 Мбайт (6%)
Библиотека кодирования : libVorbis (Schaufenugget) (20101101 (Schaufenugget))
Язык : Japanese
Default : Да
Forced : Нет

Создавать темы 11-Фев-2014 19:47

[Профиль]  [ЛС] 
Показать сообщения:    
Ответить на тему

Текущее время: 21-Окт 17:26

Часовой пояс: UTC + 5



Вы не можете начинать темы
Вы не можете отвечать на сообщения
Вы не можете редактировать свои сообщения
Вы не можете удалять свои сообщения
Вы не можете голосовать в опросах
Вы не можете прикреплять файлы к сообщениям
Вы не можете скачивать файлы