Гравитация 3D / Gravity 3D (Альфонсо Куарон / Alfonso Cuaron) [2013 г., фантастика, триллер, драма, BDRip]

Ответить на тему
 

M_A_K ®

Стаж: 5 лет 7 месяцев

Сообщений: 100

Симпатии: 15

Гравитация 3D / Gravity 3D
Год выпуска: 2013
Страна: США, Великобритания
Жанр: фантастика, триллер, драма
Продолжительность: 01:30:58
Перевод: Профессиональный (полное дублирование) [лицензия] (iTunes)
Оригинальная дорожка: Английская
Субтитры: Нет
Режиссер: Альфонсо Куарон / Alfonso Cuaron
В ролях: Сандра Буллок, Джордж Клуни, Эд Харрис, Орто Игнатиуссен, Пол Шарма, Эми Уоррен, Башер Саваж.
Описание: Доктор Райан Стоун, блестящий специалист в области медицинского инжиниринга, отправляется в свою первую космическую миссию под командованием ветерана астронавтики Мэтта Ковальски, для которого этот полет — последний перед отставкой. Но во время, казалось бы, рутинной работы за бортом случается катастрофа. Шаттл уничтожен, а Стоун и Ковальски остаются совершенно одни; они находятся в связке друг с другом, и все, что они могут, — это двигаться по орбите в абсолютно черном пространстве без всякой связи с Землей и какой-либо надежды на спасение.
 

MediaInfo

General
Unique ID : 186263838819019275021967242199610688441 (0x8C211C4802EAC762873D5C2373A403B9)
Format : Matroska
Format version : Version 2
File size : 9.08 GiB
Duration : 1h 30mn
Overall bit rate : 14.3 Mbps
Movie name : [torrent3d.ru]
Encoded date : UTC 2014-02-07 15:08:06
Writing application : mkvmerge v4.0.0 ('The Stars were mine') сборка от Jun 6 2010 16:18:42
Writing library : libebml v1.0.0 + libmatroska v1.0.0
Video
ID : 1
Format : AVC
Format/Info : Advanced Video Codec
Format profile : [email protected]
Format settings, CABAC : Yes
Format settings, ReFrames : 2 frames
Codec ID : V_MPEG4/ISO/AVC
Duration : 1h 30mn
Bit rate : 12.1 Mbps
Width : 1 920 pixels
Height : 1 080 pixels
Display aspect ratio : 16:9
Frame rate mode : Constant
Frame rate : 23.976 fps
Color space : YUV
Chroma subsampling : 4:2:0
Bit depth : 8 bits
Scan type : Progressive
Bits/(Pixel*Frame) : 0.244
Stream size : 7.70 GiB (85%)
Writing library : x264 core
Language : English
Default : No
Forced : No
Color primaries : BT.709
Transfer characteristics : BT.709
Matrix coefficients : BT.709
Audio #1
ID : 2
Format : AC-3
Format/Info : Audio Coding 3
Mode extension : CM (complete main)
Format settings, Endianness : Big
Codec ID : A_AC3
Duration : 1h 30mn
Bit rate mode : Constant
Bit rate : 384 Kbps
Channel(s) : 6 channels
Channel positions : Front: L C R, Side: L R, LFE
Sampling rate : 48.0 KHz
Bit depth : 16 bits
Compression mode : Lossy
Stream size : 250 MiB (3%)
Language : Russian
Default : Yes
Forced : No
Audio #2
ID : 3
Format : DTS
Format/Info : Digital Theater Systems
Mode : 16
Format settings, Endianness : Big
Codec ID : A_DTS
Duration : 1h 30mn
Bit rate mode : Constant
Bit rate : 1 509 Kbps
Channel(s) : 6 channels
Channel positions : Front: L C R, Side: L R, LFE
Sampling rate : 48.0 KHz
Bit depth : 16 bits
Compression mode : Lossy
Delay relative to video : 11ms
Stream size : 982 MiB (11%)
Language : English
Default : No
Forced : No
Menu
00:00:00.000 : en:00:00:00.000
00:13:08.830 : en:00:13:08.830
00:21:33.542 : en:00:21:33.542
00:29:12.668 : en:00:29:12.668
00:39:59.856 : en:00:39:59.856
00:48:49.051 : en:00:48:49.051
00:57:00.667 : en:00:57:00.667
01:08:08.418 : en:01:08:08.418
01:15:27.148 : en:01:15:27.148
01:23:50.567 : en:01:23:50.567
Качество: BDRip1080p
Формат: MKV
Формат 3D: Anamorph SideBySide / Горизонтальная анаморфная стереопара
Порядок ракурсов: левый ракурс первый
Видео кодек: MPEG-4 AVC
Аудио кодек: DTS, AC3
Видео: MPEG-4 AVC, 12.1 Мбит/с, 1920x1080, 23.976 кадр/с
Аудио: Русский (AC3, 6 ch, 384 Кбит/с), английский (DTS, 6 ch, 1510 Кбит/с)

Скриншоты




Создавать темы 11-Фев-2014 19:53

[Профиль]  [ЛС] 

tima4664

Стаж: 5 лет 7 месяцев

Сообщений: 10

Симпатии: 5

раздающие есть????что то не идет закачка!!! ta

Создавать темы 15-Фев-2014 20:20

[Профиль]  [ЛС] 

bordi

Стаж: 4 года 2 месяца

Сообщений: 7

Симпатии: 1

И у меня тоже!

Создавать темы 16-Фев-2014 14:57

[Профиль]  [ЛС] 

bordi

Стаж: 4 года 2 месяца

Сообщений: 7

Симпатии: 1

Удалил торрент файл,заново скачал,загрузка пошла!

Создавать темы 16-Фев-2014 14:59

[Профиль]  [ЛС] 

Robertpak5

Стаж: 3 года 9 месяцев

Сообщений: 6

посмотрел, не впечатляют 3D эффекты!

Создавать темы 24-Фев-2014 00:42

[Профиль]  [ЛС] 

narmayax

Стаж: 3 года 9 месяцев

Сообщений: 15

Симпатии: 1

783700посмотрел, не впечатляют 3D эффекты!
Во во!!!а я то посмотрев 2D версию и увидев на форуме 3d кинулся ее качать!о чем пожалел!
Во первых эти полосы сверху снизу,во вторых 3d в этом потрясающем фильме сконвертированное мне кажется

Создавать темы 24-Фев-2014 10:51

[Профиль]  [ЛС] 

Ulug'bek

Стаж: 7 лет 3 месяца

Сообщений: 15

спасибо!

Создавать темы 05-Мар-2014 21:45

[Профиль]  [ЛС] 

slap_nuts

Стаж: 7 лет 2 месяца

Сообщений: 85

narmayax, а на чем смотрел?

Создавать темы 15-Апр-2014 19:22

[Профиль]  [ЛС] 

narmayax

Стаж: 3 года 9 месяцев

Сообщений: 15

Симпатии: 1

813090narmayax, а на чем смотрел?
на телевизоре.
да и вообще обратил внимание что фильмы изначально снятые не в 3d не создают того эффекта глубины.
двоится

Создавать темы 17-Апр-2014 12:47

[Профиль]  [ЛС] 

prostok2

Стаж: 4 года 1 месяц

Сообщений: 27

Симпатии: 14

И что отстойно ?

Создавать темы 27-Май-2014 22:36

[Профиль]  [ЛС] 

morozko

Стаж: 6 лет 7 месяцев

Сообщений: 83

Симпатии: 17

narmayax, двоится, если некачественно переделали в 3д. а так нормально всё.

Создавать темы 29-Май-2014 21:48

[Профиль]  [ЛС] 
Показать сообщения:    
Ответить на тему

Текущее время: 21-Авг 09:46

Часовой пояс: UTC + 5



Вы не можете начинать темы
Вы не можете отвечать на сообщения
Вы не можете редактировать свои сообщения
Вы не можете удалять свои сообщения
Вы не можете голосовать в опросах
Вы не можете прикреплять файлы к сообщениям
Вы не можете скачивать файлы