Битва года BOTY 2011 / Battle Of The Year 2011 International [2011 г., Breakdance, DVDRip]

Ответить на тему
 

mbs_maks ®

Стаж: 3 года 8 месяцев

Сообщений: 14

Симпатии: 9

Битва года 2011 / Battle Of The Year 2011 International
Язык: FR
Русское название: Битва года
Оригинальное название: Battle Of The Year 2011 International
Год выпуска: 2011
Вид спорта: Breakdance
Продолжительность: 3:49:19
Комментарий: Не требуется
Описание: 19 ноября 2011 года прошел международный чемпионат по брейк-дансу Battle Of The Year 2011 International, который вы могли смотреть в прямом эфире на нашем сайте, а также на официальном сайте BOTY. Качайте запись финальных батлов и шоу BOTY 2011 - главного брейк-данс чемпионата среди команд.
Качество: DVDRip
Формат: AVI
Видео кодек: XviD
Аудио кодек: MP3
Видео: MPEG-4 Visual at 1200 Кбит/сек,640 x 360 (1.778) at 29.970 fps
Аудио: MPEG Audio at 128 Кбит/сек,2 канала, 44,1 КГц
Финальные батлы BOTY 2011
Первый полуфинал - Nine Stages B-Boyz vs Battle Born
Второй полуфинал - Vagabonds vs TPEC Crew
Финальный батл - Battle Born vs Vagabonds (Победитель)
Шоу Battle Of The Year 2011
Шоу от We BeGirlz
Шоу от Serial Stepperz
Шоу от Funk Style

Скриншоты

Участники

JinJo Crew - Корея
CT Group - Польша
Dead Prezz - Греция
Nine Stages B-Boyz - Япония
Kosher Flava - Израиль
Vagabonds - Франция
TPEC (Taipei Physical Education College) - Тайвань
Simple System - Казахстан
Maximum Crew - Корея
Battle Born - США
Guatemaya Crew - Гватемала
Reckless Bunch - Германия
Amazon B-Boys - Бразилия
Ruff'n'X - Швейцария
De Klan - Италия
Hoochen Crew - Бельгия
Over Boys - Кувейт
1piece ud town - Тайланд
Flavaz Army - Тунис
BMT & Mafia 13 - Россия
Fusion Crew - Алжир

MI

Общее
Полное имя : D:\Мои документы\Видео\Break Dance\Battle of The Year International 2011.avi
Формат : AVI
Формат/Информация : Audio Video Interleave
Профиль формата : OpenDML
Размер файла : 2,15 Гбайт
Продолжительность : 3 ч. 49 м.
Общий поток : 1345 Кбит/сек
Программа кодирования : Magic0515
Библиотека кодирования : VirtualDub build 32842/release
Видео
Идентификатор : 0
Формат : MPEG-4 Visual
Профиль формата : Advanced [email protected]
Параметр BVOP формата : Нет
Параметр QPel формата : Нет
Параметр GMC формата : Без точки перехода
Параметр матрицы формата : Default (H.263)
Идентификатор кодека : XVID
Идентификатор кодека/Подсказка : XviD
Продолжительность : 3 ч. 49 м.
Битрейт : 1200 Кбит/сек
Ширина : 640 пикселей
Высота : 360 пикселей
Соотношение сторон : 16:9
Частота кадров : 29,970 кадров/сек
Цветовое пространство : YUV
Субдискретизация насыщенности : 4:2:0
Битовая глубина : 8 бит
Тип развёртки : Прогрессивная
Метод сжатия : С потерями
Бит/(Пиксели*Кадры) : 0.174
Размер потока : 1,92 Гбайт (89%)
Библиотека кодирования : Magic0432
Аудио
Идентификатор : 1
Формат : MPEG Audio
Версия формата : Version 1
Профиль формата : Layer 3
Режим : Joint stereo
Расширение режима : MS Stereo
Идентификатор кодека : 55
Идентификатор кодека/Подсказка : MP3
Продолжительность : 3 ч. 49 м.
Вид битрейта : Постоянный
Битрейт : 128 Кбит/сек
Каналы : 2 канала
Частота : 44,1 КГц
Метод сжатия : С потерями
Размер потока : 210 Мбайт (10%)
Выравнивание : Соединение по промежуткам
Продолжительность промежутка : 26 мс. (0,78 видеокадр)
Время предзагрузки промежутка : 522 мс.

Создавать темы 12-Фев-2014 11:10

[Профиль]  [ЛС] 

^al9^#

Стаж: 4 года 3 месяца

Сообщений: 71

Симпатии: 1

Скачавший раздай)

Создавать темы 24-Мар-2014 16:45

[Профиль]  [ЛС] 
Показать сообщения:    
Ответить на тему

Текущее время: 24-Сен 19:10

Часовой пояс: UTC + 5



Вы не можете начинать темы
Вы не можете отвечать на сообщения
Вы не можете редактировать свои сообщения
Вы не можете удалять свои сообщения
Вы не можете голосовать в опросах
Вы не можете прикреплять файлы к сообщениям
Вы не можете скачивать файлы