[#148]Хладнокровный Люк / Cool Hand Luke (Стюарт Розенберг / Stuart Rosenberg) [1967, драма, криминал, HDRip-AVC] DVO + Original + Sub

Ответить на тему
 

razor2011 ®

Стаж: 4 года 11 месяцев

Сообщений: 227

Симпатии: 37

Хладнокровный Люк / Cool Hand Luke
«'What we've got here is failure to communicate.'»
Год выпуска: 1967
Страна: США, Warner Bros
Жанр: драма, криминал
Продолжительность: 02:06:34
Перевод: Профессиональный (двухголосый закадровый) - CP Digital
Русские субтитры: есть-Режиссер: Стюарт Розенберг / Stuart Rosenberg
сценарий: Донн Пирс, Фрэнк Пирсон
композитор: Лало Шифрин-В ролях: Пол Ньюман, Джордж Кеннеди, Дж.Д. Кэннон, Лу Антонио, Роберт Драйвэс, Строзер Мартин, Джо Ван Флит, Клифтон Джеймс, Морган Вудворд, Деннис Хоппер, Хэрри Дин Стэнтон-Описание: Однажды ночью Люк (Пол Ньюмен), выпив, решил развлечься и свинтил газовым ключом дюжину монетоприемников на автостоянке, за что и получил два года ремонтно-строительных работ на дорогах в южных штатах. Еще во время войны он много раз испытывал свою судьбу на прочность и тюрьма стала очередной проверкой, которую Люк похоже и искал... За свой упрямый и упорный характер Люк получил от сокамерников уважительное прозвище "Люк Хладнокровный", а с ним и ненависть надзирателей лагеря за стремление к свободе и непокорный прав. Три побега, три ареста и три жестоких наказания не сломили его волю к жизни, он стал героем для остальных заключенных, героем-одиночкой, поставившим себя против системы...-Доп. информация:
| | | 16+--Качество: HDRip ( Исходник - BDRip 1080p ,
Формат: MKV
Видеокодек: AVC, x264 L4.1 DXVA
Аудиокодек: AC3, AAC
Видео: 1152x480; 23.976 fps; 1985 Kbps
Аудио #1: Русский; AC3; 2ch; 48Hz; CBR; 192 Kbps; | MVO
Аудио #2: Английский; AC3; 2ch; 48Hz; CBR; 192 Kbps; | Оригинал
Аудио #3: Английский; AAC-LC; 2 Ch; 48.0 KHz; ABR; 96 Kbps; | Комментарии
Субтитры #1: Русские; SRT UTF-8,
Субтитры #2: Английские; SRT UTF-8-Сэмпл-

Скриншоты



МедиаИнфо

General
Complete name : E:\WD\Video\Cool.Hand.Luke.1967.mkv
Format : Matroska
File size : 2.18 GiB
Duration : 2h 6mn
Overall bit rate : 2 467 Kbps
Encoded date : UTC 2010-11-07 07:36:36
Writing application : mkvmerge v3.2.0 ('Beginnings') built on Feb 12 2010 16:46:17
Writing library : libebml v0.7.9 + libmatroska v0.8.1
Video
ID : 1
Format : AVC
Format/Info : Advanced Video Codec
Format profile : [email protected]
Format settings, CABAC : Yes
Format settings, ReFrames : 11 frames
Muxing mode : Container [email protected]
Codec ID : V_MPEG4/ISO/AVC
Duration : 2h 6mn
Nominal bit rate : 1 985 Kbps
Width : 1 152 pixels
Height : 480 pixels
Display aspect ratio : 2.40:1
Frame rate : 23.976 fps
Resolution : 24 bits
Colorimetry : 4:2:0
Scan type : Progressive
Bits/(Pixel*Frame) : 0.150
Title : Cool Hand Luke
Writing library : x264 core 98 r1649 c54c47d
Encoding settings : cabac=1 / ref=11 / deblock=1:-1:-1 / analyse=0x3:0x113 / me=umh / subme=9 / psy=1 / psy_rd=0.80:0.10 / mixed_ref=1 / me_range=24 / chroma_me=1 / trellis=2 / 8x8dct=1 / cqm=0 / deadzone=21,11 / fast_pskip=0 / chroma_qp_offset=-3 / threads=3 / sliced_threads=0 / nr=0 / decimate=0 / interlaced=0 / constrained_intra=0 / bframes=10 / b_pyramid=2 / b_adapt=2 / b_bias=0 / direct=3 / weightb=1 / weightp=2 / keyint=250 / keyint_min=25 / scenecut=40 / intra_refresh=0 / rc_lookahead=40 / rc=2pass / mbtree=0 / bitrate=1985 / ratetol=1.0 / qcomp=0.60 / qpmin=10 / qpmax=51 / qpstep=4 / cplxblur=20.0 / qblur=0.5 / vbv_maxrate=50000 / vbv_bufsize=50000 / ip_ratio=1.40 / pb_ratio=1.30 / aq=1:1.00 / nal_hrd=none
Language : English
Audio #1
ID : 2
Format : AC-3
Format/Info : Audio Coding 3
Codec ID : A_AC3
Duration : 2h 6mn
Bit rate mode : Constant
Bit rate : 192 Kbps
Channel(s) : 2 channels
Channel positions : L R
Sampling rate : 48.0 KHz
Stream size : 174 MiB (8%)
Title : MVO
Language : Russian
Audio #2
ID : 3
Format : AC-3
Format/Info : Audio Coding 3
Codec ID : A_AC3
Duration : 2h 6mn
Bit rate mode : Constant
Bit rate : 192 Kbps
Channel(s) : 2 channels
Channel positions : L R
Sampling rate : 48.0 KHz
Stream size : 174 MiB (8%)
Title : Original
Language : English
Audio #3
ID : 4
Format : AAC
Format/Info : Advanced Audio Codec
Format version : Version 4
Format profile : LC
Format settings, SBR : No
Codec ID : A_AAC
Duration : 2h 6mn
Channel(s) : 2 channels
Channel positions : L R
Sampling rate : 48.0 KHz
Resolution : 16 bits
Title : Commentary
Language : English
Text #1
ID : 5
Format : UTF-8
Codec ID : S_TEXT/UTF8
Codec ID/Info : UTF-8 Plain Text
Title : Sub (arsis09)
Language : Russian
Text #2
ID : 6
Format : UTF-8
Codec ID : S_TEXT/UTF8
Codec ID/Info : UTF-8 Plain Text
Language : English

x264 log

...last pass...
x264.exe: --pass 2 --bitrate 1985 --ref 11 --deblock -1:-1 --merange 24 --bframes 10 --direct auto --b-adapt 2 --trellis 2 --no-fast-pskip --no-dct-decimate --psy-rd 0.8:0.1 --vbv-bufsize 50000 --vbv-maxrate 50000 --partitions p8x8,b8x8,i4x4,i8x8 --subme 9 --me umh --no-mbtree --psnr --ssim --stats "E:\Main\Cool.Hand.Luke.1967.480p.log" --sar 1:1 --output "E:\Main\Cool.Hand.Luke.1967.480p.mkv" "E:\Temp\0021.avs"
avs [info]: 1152x480p 1:1 @ 2997/125 fps (cfr)
x264 [info]: using SAR=1/1
x264 [info]: using cpu capabilities: MMX2 SSE2Slow SlowCTZ
x264 [info]: profile High, level 4.1
x264 [info]: frame I:1306 Avg QP:18.56 size: 67658 PSNR Mean Y:44.87 U:50.60 V:50.20 Avg:46.04 Global:45.16
x264 [info]: frame P:39242 Avg QP:20.60 size: 20443 PSNR Mean Y:43.20 U:50.07 V:49.66 Avg:44.47 Global:43.47
x264 [info]: frame B:141548 Avg QP:22.18 size: 7016 PSNR Mean Y:42.41 U:49.67 V:49.25 Avg:43.75 Global:42.87
x264 [info]: consecutive B-frames: 1.0% 1.8% 4.9% 35.2% 19.4% 21.1% 4.8% 6.5% 1.3% 3.0% 1.1%
x264 [info]: mb I I16..4: 5.2% 81.5% 13.2%
x264 [info]: mb P I16..4: 0.8% 10.3% 0.7% P16..4: 49.0% 24.2% 11.5% 0.0% 0.0% skip: 3.4%
x264 [info]: mb B I16..4: 0.1% 1.0% 0.1% B16..8: 40.1% 9.2% 2.2% direct: 4.6% skip:42.8% L0:42.2% L1:48.6% BI: 9.3%
x264 [info]: 8x8 transform intra:86.4% inter:65.1%
x264 [info]: direct mvs spatial:98.9% temporal:1.1%
x264 [info]: coded y,uvDC,uvAC intra: 90.8% 76.4% 41.4% inter: 22.7% 19.3% 3.6%
x264 [info]: i16 v,h,dc,p: 28% 12% 21% 39%
x264 [info]: i8 v,h,dc,ddl,ddr,vr,hd,vl,hu: 9% 7% 9% 9% 15% 13% 13% 11% 13%
x264 [info]: i4 v,h,dc,ddl,ddr,vr,hd,vl,hu: 9% 6% 3% 9% 17% 16% 14% 12% 13%
x264 [info]: i8c dc,h,v,p: 39% 27% 19% 14%
x264 [info]: Weighted P-Frames: Y:3.8%
x264 [info]: ref P L0: 46.8% 11.2% 17.6% 5.5% 5.2% 3.5% 3.5% 1.7% 1.8% 1.5% 1.6% 0.2% 0.0%
x264 [info]: ref B L0: 73.8% 11.2% 5.2% 2.7% 2.0% 1.8% 1.4% 0.9% 0.5% 0.3%
x264 [info]: ref B L1: 93.3% 6.7%
x264 [info]: SSIM Mean Y:0.9701186 (15.246db)
x264 [info]: PSNR Mean Y:42.596 U:49.761 V:49.347 Avg:43.920 Global:43.004 kb/s:1984.13
x264 [total]: encoded 182096 frames, 2.60 fps, 1984.13 kb/s

FAQ по просмотру MKV/h.264/AAC



Последний раз редактировалось: razor2011 (2014-02-12 21:30), всего редактировалось 1 раз

Создавать темы 12-Фев-2014 13:09

[Профиль]  [ЛС] 

СтАсИкОс

Стаж: 6 лет 7 месяцев

Сообщений: 314

Симпатии: 20

Укажите в шапке рейтинг фильма [#номер в рейтинге imdb]

Создавать темы 12-Фев-2014 19:48

[Профиль]  [ЛС] 
Показать сообщения:    
Ответить на тему

Текущее время: 20-Авг 20:22

Часовой пояс: UTC + 5



Вы не можете начинать темы
Вы не можете отвечать на сообщения
Вы не можете редактировать свои сообщения
Вы не можете удалять свои сообщения
Вы не можете голосовать в опросах
Вы не можете прикреплять файлы к сообщениям
Вы не можете скачивать файлы