Чемпионы (Алексей Вакулов, Артем Аксененко, Дмитрий Дюжев, ...)[2014, Спорт, Драма, WEB-DLRip]

Ответить на тему
 

victor0778 ®

Стаж: 6 лет 10 месяцев

Сообщений: 1670

Симпатии: 142

-Чемпионы-
«Победы, которые у нас уже есть»-
Год выпуска: 2014
Страны: Россия
Жанры: Спорт, Драма
Продолжительность: 01:37:56
Перевод: Оригинал--Режиссер:
Алексей Вакулов, Артем Аксененко, Дмитрий Дюжев, ...--Сценарий: Леонид Марголин, Александр Маркин, Эмиль Никогосян, ...
Продюсер: Георгий Малков, Сарик Андреасян, Гевонд Андреасян, ...
Оператор: Антон Зенкович, Вячеслав Лисневский, Евгений Ермоленко
Композитор: Арташес Андреасян, Дарин Сысоев, Дмитрий Козинец, ...
Художник: Давид Дадунашвили, Раиса Заслав, Оксана Шевченко, ...
Монтаж: Кирилл Козлов, Александр Слюсарев-В ролях:
             Андрей Смоляков (Николай Круглов ст.), Марк Богатырев (Николай Круглов мл.), Андрей Федорцов , Михаил Горевой , Дмитрий Губерниев (комментатор), Таисия Вилкова (Екатерина Илюхина), Александр Молочников (Саша), Максим Виторган (тренер)-Описание:
Пять реальных историй больших побед российских спортсменов. И за каждой победой стоят человеческие истории, в которых переплетаются любовь, предательство, дружба, уважение, труд и вера. Вера в себя, вера в победу.-Сборы в России: $5 164 051 сборы
Зрители: Россия 701.5 тыс.
Премьера (мир): 23 января 2014
Премьера (РФ): 23 января 2014, «Каропрокат»
Релиз на DVD: 18 февраля 2014, «Lizard Cinema Trade», ...
Релиз на Blu-Ray: 18 февраля 2014, «Lizard Cinema Trade», ...-Качество: WEB-DLRip
Формат: AVI
Видео кодек: XviD
Аудио кодек: MP3
Видео: 720x304 (2.35:1), 24.000 fps, XviD, 1 851 Kbps
Аудио: MP3, 128 Kbps, 48.0 KHz, 2 ch

Скриншоты



МедиаИнфо

General
Complete name : 4emp10Hy.2014.O.WEB-DLRip[TAS-IX.NET].1400MB.avi
Format : AVI
Format/Info : Audio Video Interleave
File size : 1.36 GiB
Duration : 1h 37mn
Overall bit rate : 1 989 Kbps
Writing application : VirtualDubMod 1.5.10.3 | www.virtualdub-fr.org || (build 2550/release)
Writing library : VirtualDubMod build 2550/release
Video
ID : 0
Format : MPEG-4 Visual
Format profile : Advanced [email protected]
Format settings, BVOP : Yes
Format settings, QPel : No
Format settings, GMC : No warppoints
Format settings, Matrix : Default (H.263)
Codec ID : XVID
Codec ID/Hint : XviD
Duration : 1h 37mn
Bit rate : 1 851 Kbps
Width : 720 pixels
Height : 304 pixels
Display aspect ratio : 2.35:1
Frame rate : 24.000 fps
Color space : YUV
Chroma subsampling : 4:2:0
Bit depth : 8 bits
Scan type : Progressive
Bits/(Pixel*Frame) : 0.352
Stream size : 1.27 GiB (93%)
Writing library : XviD 73
Audio
ID : 1
Format : MPEG Audio
Format version : Version 1
Format profile : Layer 3
Mode : Joint stereo
Mode extension : MS Stereo
Codec ID : 55
Codec ID/Hint : MP3
Duration : 1h 37mn
Bit rate mode : Constant
Bit rate : 128 Kbps
Channel(s) : 2 channels
Sampling rate : 48.0 KHz
Stream size : 89.7 MiB (6%)
Alignment : Aligned on interleaves
Interleave, duration : 42 ms (1.00 video frame)
Interleave, preload duration : 504 ms

Создавать темы 14-Фев-2014 14:40

[Профиль]  [ЛС] 

azuzin

Стаж: 5 лет 10 месяцев

Сообщений: 33

Симпатии: 3

Spasibo

Создавать темы 15-Фев-2014 18:43

[Профиль]  [ЛС] 

Sanjarbek8585

Стаж: 4 года

Сообщений: 8

Симпатии: 1

Остросюжетный фильм "Судья" (1 - 4 серия из 4) / 2014 / Россия
кто сможет поставит это филм спс заране

Создавать темы 18-Фев-2014 13:07

[Профиль]  [ЛС] 

alexey75

Стаж: 5 лет 1 месяц

Сообщений: 1

спасибо

Создавать темы 28-Фев-2014 22:50

[Профиль]  [ЛС] 

Big_Aziz

Стаж: 6 лет 8 месяцев

Сообщений: 22

Симпатии: 1

спасибо

Создавать темы 17-Мар-2014 21:39

[Профиль]  [ЛС] 

dragoncha

Стаж: 5 лет 1 месяц

Сообщений: 6

Симпатии: 1

ooooooooooooooooooookkkkkkkkkkkkkkkkkkkkk

Создавать темы 17-Авг-2014 09:48

[Профиль]  [ЛС] 
Показать сообщения:    
Ответить на тему

Текущее время: 17-Дек 01:35

Часовой пояс: UTC + 5



Вы не можете начинать темы
Вы не можете отвечать на сообщения
Вы не можете редактировать свои сообщения
Вы не можете удалять свои сообщения
Вы не можете голосовать в опросах
Вы не можете прикреплять файлы к сообщениям
Вы не можете скачивать файлы