Цветы на чердаке / Flowers in the Attic (Дебора Чоу) [2014 г., триллер, драма, детектив, HDRip]

Страницы :  1, 2  След.

Ответить на тему
 

Slapper ®

Стаж: 3 года 10 месяцев

Сообщений: 2193

Симпатии: 213

Цветы на чердаке / Flowers in the Attic -Год выпуска: 2014
Страна: Канада, США
Жанр: триллер, драма, детектив
Продолжительность: 01:29:59
Перевод: Одноголосый закадровый ViruseProject-Режиссер: Дебора Чоу
Премьера (мир): 18 января 2014
В ролях: Хэзер Грэм, Эллен Бёрстин, Кирнан Шипка, Мэйсон Дай, Дилан Брюс, Ава Телек, Бо Дэниелс, Б.Дж. Харрисон и другие
-Описание: Когда у Корин Доллагэнгер внезапно умер любимый муж, для неё и четырёх детей настали тяжелые времена. Она осталась без гроша, без работы и не знала, что делать. Жизнь вынудила её вернуться в дом своих родителей Фоксвортов, людей богатых, но жестоких и ханжей.-Рейтинг: -Качество: HDRip
Формат: AVI
Видео кодек: XviD
Аудио кодек: AC3
Видео: 720x400, 1908 kbps, 23,98 fps
Аудио: AC3, 48 kHz, 256 kbps, Стерео

MediaInfo

Общее
Полное имя : D:\Торрент-файлы (загрузки)\Flowers.in.the.Attic.2014.ViruseProject.avi
Формат : AVI
Формат/Информация : Audio Video Interleave
Размер файла : 1,36 Гбайт
Продолжительность : 1 ч. 29 м.
Общий поток : 2164 Кбит/сек
Программа кодирования : VirtualDubMod 1.5.10.2 (build 2540/release)
Библиотека кодирования : VirtualDubMod build 2540/release
Видео
Идентификатор : 0
Формат : MPEG-4 Visual
Профиль формата : Advanced [email protected]
Параметр BVOP формата : 2
Параметр QPel формата : Нет
Параметр GMC формата : Без точки перехода
Параметр матрицы формата : Default (H.263)
Режим смешивания : Сжатый битовый поток
Идентификатор кодека : XVID
Идентификатор кодека/Подсказка : XviD
Продолжительность : 1 ч. 29 м.
Битрейт : 1899 Кбит/сек
Ширина : 720 пикселей
Высота : 400 пикселей
Соотношение сторон : 16:9
Частота кадров : 23,976 кадра/сек
Цветовое пространство : YUV
Субдискретизация насыщенности : 4:2:0
Битовая глубина : 8 бит
Тип развёртки : Прогрессивная
Метод сжатия : С потерями
Бит/(Пиксели*Кадры) : 0.275
Размер потока : 1,19 Гбайт (88%)
Библиотека кодирования : XviD 64
Аудио
Идентификатор : 1
Формат : AC-3
Формат/Информация : Audio Coding 3
Расширение режима : CM (complete main)
Параметр Endianness формата : Big
Идентификатор кодека : 2000
Продолжительность : 1 ч. 29 м.
Вид битрейта : Постоянный
Битрейт : 256 Кбит/сек
Каналы : 2 канала
Расположение каналов : Front: L R
Частота : 48,0 КГц
Битовая глубина : 16 бит
Метод сжатия : С потерями
Размер потока : 165 Мбайт (12%)
Выравнивание : Разделение по промежуткам
Продолжительность промежутка : 42 мс. (1,00 видеокадр)
Время предзагрузки промежутка : 500 мс.

Скриншоты






Последний раз редактировалось: Slapper (2014-02-14 20:08), всего редактировалось 1 раз

Создавать темы 14-Фев-2014 18:29

[Профиль]  [ЛС] 

Slapper ®

Стаж: 3 года 10 месяцев

Сообщений: 2193

Симпатии: 213

раздача чуть позже.. через пол часа

Создавать темы 14-Фев-2014 18:46

[Профиль]  [ЛС] 

Slapper ®

Стаж: 3 года 10 месяцев

Сообщений: 2193

Симпатии: 213

все, качаем отдача по полной

Создавать темы 14-Фев-2014 20:12

[Профиль]  [ЛС] 

bashi

Стаж: 5 лет 7 месяцев

Сообщений: 42

kino kak xaroshi stoyit pasmatret Slapper,

Создавать темы 14-Фев-2014 20:35

[Профиль]  [ЛС] 

_macho

Стаж: 5 лет 7 месяцев

Сообщений: 64

cb sps

Создавать темы 14-Фев-2014 20:36

[Профиль]  [ЛС] 

Slapper ®

Стаж: 3 года 10 месяцев

Сообщений: 2193

Симпатии: 213

bashi, да мне понравилось

Создавать темы 14-Фев-2014 21:36

[Профиль]  [ЛС] 

Slapper ®

Стаж: 3 года 10 месяцев

Сообщений: 2193

Симпатии: 213

_macho, нз)

Создавать темы 14-Фев-2014 21:37

[Профиль]  [ЛС] 

redbee96

Стаж: 3 года 10 месяцев

Сообщений: 16

Симпатии: 2

Не качаеееет

Создавать темы 18-Фев-2014 08:12

[Профиль]  [ЛС] 

axeman

Стаж: 4 года 10 месяцев

Сообщений: 380

Симпатии: 50

779395Не качаеееет
точно

Создавать темы 18-Фев-2014 08:23

[Профиль]  [ЛС] 

Slapper ®

Стаж: 3 года 10 месяцев

Сообщений: 2193

Симпатии: 213

redbee96, axeman, скачано 96 раз и это называется не качает? Это проблема к вас

Создавать темы 18-Фев-2014 09:21

[Профиль]  [ЛС] 

ararat10

Стаж: 3 года 10 месяцев

Сообщений: 9

Это римейк старого одноимённого фильма,даже дети похожи. Тот фильм был очень циничный и жёсткий. Наверное этот такой же.

Создавать темы 19-Фев-2014 23:28

[Профиль]  [ЛС] 

artem2010

Стаж: 6 лет 10 месяцев

Сообщений: 89

Симпатии: 7

Раздача)

Создавать темы 20-Фев-2014 00:31

[Профиль]  [ЛС] 

Makbet85

Стаж: 3 года 10 месяцев

Сообщений: 9

Дайте газу плиз

Создавать темы 21-Фев-2014 09:33

[Профиль]  [ЛС] 

Linda

Стаж: 3 года 7 месяцев

Сообщений: 1

Классный фильм советую всем посмотреть

Создавать темы 23-Фев-2014 21:45

[Профиль]  [ЛС] 

Водяной

Стаж: 5 лет 8 месяцев

Сообщений: 5

Симпатии: 2

Четкий филь,советую посмотреть

Создавать темы 23-Фев-2014 21:59

[Профиль]  [ЛС] 
Показать сообщения:    
Ответить на тему

Текущее время: 25-Сен 13:11

Часовой пояс: UTC + 5



Вы не можете начинать темы
Вы не можете отвечать на сообщения
Вы не можете редактировать свои сообщения
Вы не можете удалять свои сообщения
Вы не можете голосовать в опросах
Вы не можете прикреплять файлы к сообщениям
Вы не можете скачивать файлы