Уличные танцы / Street Dance (Макс Джива / Max Jiva, Дания Пасквини / Denmark Pasquini) [2010, Великобритания, мелодрама, музыка, BDRip 1080p] DUB Sub rus + original eng

Ответить на тему
 

Phantomhive ®

Стаж: 4 года 2 месяца

Сообщений: 218

Симпатии: 10

Уличные Танцы / Street Dance-«Два мира. Одна мечта.»- Страна: США, Великобритания
Студия: Vertigo Films
Жанр: Мелодрама, Музыка
Год выпуска: 2010
Мировая премьера: 19 мая 2010
Российская премьера: 10 июня 2010, «Парадиз»3D
Дата выхода DVD: 30 сентября 2010, «ПАРАДИЗ-ВC»
Дата выхода Blu-Ray: 30 сентября 2010, «ПАРАДИЗ-ВC»
Продолжительность: 01:34:20-Перевод: Профессиональный (дублированный) [Лицензия]
Cубтитры: Русские-Режиссер: Макс Джива, Дания Пасквини / Max Jiva, Denmark Pasquini-В ролях: : Шарлотта Рэмплинг (Helena), Рэйчел МакДауэлл (Isabella), Никола Берли (Carly), Ричард Уинзор (Tomas), Элинор Брон (Madame Fleurie), Джордж Сэмпсон (Eddie), Джереми Шеффилд (Michael), Кристофер Уилсон (Cafe Parent), Патрик Балади (Mr Harding), Фрэнк Харпер (Fred), Шианад Грегори (Chloe), Аквели Роач (Jay)
-Описание: Для победы на ежегодном Street Dance-чемпионате группа молодых танцоров начинает репетировать вместе с танцорами из Королевской Школы Балета. На стыке рок-н-ролла, уличных танцев и классики рождается умопомрачительный микс танцевальных стилей, страстей и эмоций.-Тип релиза: BDRip 1080p
Контейнер: MKV
Видео: AVC,1920x1080,13.0 Mbps, 24.000 fps
Аудио: Russian: DTS 5.1 / 48 kHz / 1152 kbps
Аудио 2: English: DTS 5.1 / 48 kHz / 1152 kbps
Формат субтитров: softsub (SRT)-

MediaInfo

General
Unique ID : 201318398937863258387647579061376838586 (0x97748366C7C086AFB9950CE47DC4EBBA)
Complete name : F:\Уличные Танцы\Уличные Танцы 1\Уличные Танцы.mkv
Format : Matroska
Format version : Version 2
File size : 10.7 GiB
Duration : 1h 38mn
Overall bit rate : 15.6 Mbps
Movie name : Street Dance (2010)
Encoded date : UTC 2011-04-15 14:21:12
Writing application : mkvmerge v4.6.0 ('Still Crazy After All These Years') сборка от Mar 10 2011 02:50:32
Writing library : libebml v1.2.0 + libmatroska v1.1.0
Video
ID : 1
Format : AVC
Format/Info : Advanced Video Codec
Format profile : [email protected]
Format settings, CABAC : Yes
Format settings, ReFrames : 4 frames
Codec ID : V_MPEG4/ISO/AVC
Bit rate : 13.0 Mbps
Width : 1 920 pixels
Height : 1 080 pixels
Display aspect ratio : 16:9
Frame rate mode : Variable
Original frame rate : 24.000 fps
Color space : YUV
Chroma subsampling : 4:2:0
Bit depth : 8 bits
Scan type : Progressive
Writing library : x264 core 114 r1924 08d04a4
Encoding settings : cabac=1 / ref=4 / deblock=1:-3:-2 / analyse=0x3:0x113 / me=umh / subme=10 / psy=1 / psy_rd=1.00:0.00 / mixed_ref=1 / me_range=32 / chroma_me=1 / trellis=2 / 8x8dct=1 / cqm=0 / deadzone=21,11 / fast_pskip=0 / chroma_qp_offset=-2 / threads=3 / sliced_threads=0 / nr=0 / decimate=0 / interlaced=0 / constrained_intra=0 / bframes=8 / b_pyramid=2 / b_adapt=2 / b_bias=0 / direct=3 / weightb=1 / open_gop=0 / weightp=2 / keyint=250 / keyint_min=24 / scenecut=40 / intra_refresh=0 / rc_lookahead=40 / rc=crf / mbtree=0 / crf=17.2 / qcomp=0.60 / qpmin=10 / qpmax=51 / qpstep=4 / vbv_maxrate=50000 / vbv_bufsize=62500 / crf_max=0.0 / nal_hrd=none / ip_ratio=1.40 / pb_ratio=1.30 / aq=1:0.90
Language : English
Default : Yes
Forced : No
Matrix coefficients : BT.709
Audio #1
ID : 2
Format : DTS
Format/Info : Digital Theater Systems
Mode : 16
Format settings, Endianness : Big
Codec ID : A_DTS
Duration : 1h 38mn
Bit rate mode : Constant
Bit rate : 1 152 Kbps
Channel(s) : 6 channels
Channel positions : Front: L C R, Side: L R, LFE
Sampling rate : 48.0 KHz
Bit depth : 24 bits
Compression mode : Lossy
Stream size : 810 MiB (7%)
Title : DTS @ 5.1 1 152 Kbps - (Дубляж)
Language : Russian
Default : Yes
Forced : No
Audio #2
ID : 3
Format : DTS
Format/Info : Digital Theater Systems
Mode : 16
Format settings, Endianness : Big
Codec ID : A_DTS
Duration : 1h 38mn
Bit rate mode : Constant
Bit rate : 1 152 Kbps
Channel(s) : 6 channels
Channel positions : Front: L C R, Side: L R, LFE
Sampling rate : 48.0 KHz
Bit depth : 24 bits
Compression mode : Lossy
Stream size : 810 MiB (7%)
Title : DTS @ 5.1 1 152 Kbps - (Оригинал)
Language : English
Default : No
Forced : No
Text #1
ID : 4
Format : UTF-8
Codec ID : S_TEXT/UTF8
Codec ID/Info : UTF-8 Plain Text
Language : Russian
Default : Yes
Forced : No
Text #2
ID : 5
Format : UTF-8
Codec ID : S_TEXT/UTF8
Codec ID/Info : UTF-8 Plain Text
Language : English
Default : No
Forced : No
Menu
00:00:00.000 : :00:00:00.000
00:09:34.958 : :00:09:34.958
00:15:36.542 : :00:15:36.542
00:21:15.333 : :00:21:15.333
00:31:08.042 : :00:31:08.042
00:38:16.917 : :00:38:16.917
00:46:41.708 : :00:46:41.708
00:54:30.542 : :00:54:30.542
01:02:20.500 : :01:02:20.500
01:12:55.333 : :01:12:55.333
01:20:55.917 : :01:20:55.917
01:28:58.750 : :01:28:58.750

x264 лог

---[NoImage] x264 [info]: frame I:1294 Avg QP:16.08 size:219016
---[NoImage] x264 [info]: frame P:34276 Avg QP:17.36 size:121947
---[NoImage] x264 [info]: frame B:105922 Avg QP:19.38 size: 50342
---[NoImage] x264 [info]: consecutive B-frames: 3.4% 4.3% 18.0% 13.4% 4.6% 55.7% 0.4% 0.2% 0.1%

Скриншоты

Создавать темы 16-Фев-2014 11:10

[Профиль]  [ЛС] 

Freek

Стаж: 3 года 8 месяцев

Сообщений: 1

Это один фильм столько весит?????

Создавать темы 16-Фев-2014 12:36

[Профиль]  [ЛС] 

Phantomhive ®

Стаж: 4 года 2 месяца

Сообщений: 218

Симпатии: 10

Freek, HD формат товариш!!!

Создавать темы 16-Фев-2014 13:03

[Профиль]  [ЛС] 
Показать сообщения:    
Ответить на тему

Текущее время: 23-Авг 09:26

Часовой пояс: UTC + 5



Вы не можете начинать темы
Вы не можете отвечать на сообщения
Вы не можете редактировать свои сообщения
Вы не можете удалять свои сообщения
Вы не можете голосовать в опросах
Вы не можете прикреплять файлы к сообщениям
Вы не можете скачивать файлы