22 Пули: Бессмертный / 22 Bullets / L'immortel (Ришар Берри / Richard Berry) [2010, Франция, боевик, драма, криминал, BDRip 1080p] DUB + Original (Fre) + Subs (rus,eng)

Страницы :  1, 2  След.

Ответить на тему
 

siyovush101 ®

Стаж: 3 года 7 месяцев

Сообщений: 205

Симпатии: 71

22 Пули: Бессмертный / 22 Bullets / L'immortel / BDRip 1080p
Год выпуска: 2010
Страна: Франция
Жанр: боевик, драма, криминал
Продолжительность: 01:57:00
Режиссер: Ришар Берри / Richard Berry
Перевод: Профессиональный (полное дублирование) [Лицензия]
В ролях: Жан Рено, Габриэлла Райт, Кад Мерад, Ришар Берри, Марина Фоис, Жан-Пьер Дарруссен, Клод Жансак, Доминик Томас, Фани Коларова, Венантино Венантини
Описание: Шарли Матеи один из крестных отцов Марселя. Он решает отойти от дел и жить на покое, ведь ему немало лет, а за спиной слишком бурная жизнь! Но компаньоны против такого поворота событий. Да и Зависть Худшая из бед... На него совершают жестокое покушение, не оставляя ему ни одного шанса.
Но он не Умирает,Не Жаждит Мести! Но Месть будет неизбежной..Почему?! Вам Придётся Посмотреть....
Доп. информация: Всем Рекомендую Фильмец! И Не Забываем Ставить Лайк Кому Понравился Мой Релиз!
Качество: BDRip (1080p)
Формат: MKV
Видео кодек: MPEG-4 AVC
Аудио кодек: AC3, DTS
Видео: 8226 Кбит/с, 1920x816, 24.000 fps
Аудио: Русский АС3, 6 ch, 384 Кбит/с, Французский DTS, 6 ch, 1510 Кбит/с
Субтитры: Русские, английские

Скриншоты

Медиа Инфо

Format : Matroska
Format version : Version 1
File size : 8.27 GiB
Duration : 1h 57mn
Overall bit rate : 10.1 Mbps
Encoded date : UTC 2010-09-12 05:17:32
Writing application : mkvmerge v2.1.0 ('Another Place To Fall') built on Aug 19 2007 13:40:07
Writing library : libebml v0.7.7 + libmatroska v0.8.1
Video #1
ID : 1
Format : AVC
Format/Info : Advanced Video Codec
Format profile : [email protected]
Format settings, CABAC : Yes
Format settings, ReFrames : 5 frames
Codec ID : V_MPEG4/ISO/AVC
Duration : 1h 57mn
Bit rate : 8 226 Kbps
Width : 1 920 pixels
Height : 816 pixels
Display aspect ratio : 2.35:1
Frame rate : 24.000 fps
Color space : YUV
Chroma subsampling : 4:2:0
Bit depth : 8 bits
Scan type : Progressive
Bits/(Pixel*Frame) : 0.219
Stream size : 6.56 GiB (79%)
Title : ---- Ko_Ant4 ----
Writing library : x264 core 104 r1713 c276662
Language : English
Default : Yes
Forced : No
Audio #2
ID : 2
Format : AC-3
Format/Info : Audio Coding 3
Mode extension : CM (complete main)
Format settings, Endianness : Big
Codec ID : A_AC3
Duration : 1h 57mn
Bit rate mode : Constant
Bit rate : 384 Kbps
Channel(s) : 6 channels
Channel positions : Front: L C R, Side: L R, LFE
Sampling rate : 48.0 KHz
Bit depth : 16 bits
Compression mode : Lossy
Stream size : 321 MiB (4%)
Title : Äóáëÿæ R5 AC3/5.1 384 kbps
Language : Russian
Default : Yes
Forced : No
Audio #3
ID : 3
Format : DTS
Format/Info : Digital Theater Systems
Codec ID : A_DTS
Duration : 1h 57mn
Bit rate mode : Constant
Bit rate : 1 510 Kbps
Channel(s) : 6 channels
Channel positions : Front: L C R, Side: L R, LFE
Sampling rate : 48.0 KHz
Bit depth : 24 bits
Compression mode : Lossy
Stream size : 1.23 GiB (15%)
Title : French DTS 1509kbps
Language : French
Default : No
Forced : No
Text #4
ID : 4
Format : UTF-8
Codec ID : S_TEXT/UTF8
Codec ID/Info : UTF-8 Plain Text
Title : Ñóáòèòðû
Language : Russian
Default : Yes
Forced : No
Text #5
ID : 5
Format : UTF-8
Codec ID : S_TEXT/UTF8
Codec ID/Info : UTF-8 Plain Text
Title : Ñóáòèòðû
Language : English
Default : No
Forced : No
mb КАЧАЙТЕ В КАЧЕСТВЕ! Зовите если Нужен Буду! рад Всех Видеть На Своём ПЕРВОМ РЕЛИЗЕ !!! Добро Пожаловать!



Последний раз редактировалось: siyovush101 (2014-03-12 01:30), всего редактировалось 48 раз(а)

Создавать темы 16-Фев-2014 23:18

[Профиль]  [ЛС] 

siyovush101 ®

Стаж: 3 года 7 месяцев

Сообщений: 205

Симпатии: 71

ta


Последний раз редактировалось: siyovush101 (2014-02-17 14:25), всего редактировалось 1 раз

Создавать темы 16-Фев-2014 23:33

[Профиль]  [ЛС] 

siyovush101 ®

Стаж: 3 года 7 месяцев

Сообщений: 205

Симпатии: 71

mb


Последний раз редактировалось: siyovush101 (2014-02-17 14:25), всего редактировалось 1 раз

Создавать темы 16-Фев-2014 23:35

[Профиль]  [ЛС] 

siyovush101 ®

Стаж: 3 года 7 месяцев

Сообщений: 205

Симпатии: 71

bv


Последний раз редактировалось: siyovush101 (2014-02-17 14:26), всего редактировалось 1 раз

Создавать темы 16-Фев-2014 23:39

[Профиль]  [ЛС] 

siyovush101 ®

Стаж: 3 года 7 месяцев

Сообщений: 205

Симпатии: 71

tf


Последний раз редактировалось: siyovush101 (2014-03-01 09:41), всего редактировалось 1 раз

Создавать темы 17-Фев-2014 00:35

[Профиль]  [ЛС] 

siyovush101 ®

Стаж: 3 года 7 месяцев

Сообщений: 205

Симпатии: 71

КАЧАЙТЕ РЕБЯЯЯЯЯЯЯЯЯЯЯЯЯТ! мой первый релиз!

Создавать темы 17-Фев-2014 01:07

[Профиль]  [ЛС] 

victor0778

Стаж: 6 лет 7 месяцев

Сообщений: 1670

Симпатии: 142

siyovush101,
здесь почитайте и поправьте
http://tas-ix.net/viewtopic.php?p=37443#37443

Создавать темы 17-Фев-2014 02:16

[Профиль]  [ЛС] 

siyovush101 ®

Стаж: 3 года 7 месяцев

Сообщений: 205

Симпатии: 71

778534siyovush101,
здесь почитайте и поправьте
http://tas-ix.net/viewtopic.php?p=37443#37443
аха! ок! но вообще для первого раза норм то хоть?!

Создавать темы 17-Фев-2014 08:27

[Профиль]  [ЛС] 

InD1gO

Стаж: 6 лет 8 месяцев

Сообщений: 81

Симпатии: 3

Раздавать будет кто-нибудь или нет?

Создавать темы 18-Фев-2014 12:07

[Профиль]  [ЛС] 

siyovush101 ®

Стаж: 3 года 7 месяцев

Сообщений: 205

Симпатии: 71

779490Раздавать будет кто-нибудь или нет?
Брат я убрал все раздачи кроме своих двух! я не знаю почему такой плохой приём у тебя...может ты не в сети тас икса?или Клиент Тередо?! тогда проблема! я отрубил Эмулирование Тередо под Корень На Своём Компе!

Создавать темы 18-Фев-2014 14:27

[Профиль]  [ЛС] 

yuger

Стаж: 5 лет 3 месяца

Сообщений: 99

Симпатии: 4

начну качать чуть позже многа закачик стоит

Создавать темы 18-Фев-2014 18:15

[Профиль]  [ЛС] 

siyovush101 ®

Стаж: 3 года 7 месяцев

Сообщений: 205

Симпатии: 71

779732начну качать чуть позже многа закачик стоит
ai te bm


Последний раз редактировалось: siyovush101 (2014-04-07 10:47), всего редактировалось 1 раз

Создавать темы 18-Фев-2014 18:20

[Профиль]  [ЛС] 

siyovush101 ®

Стаж: 3 года 7 месяцев

Сообщений: 205

Симпатии: 71

Ребят извиняюсь! раздача нормальная будет чуть позже!

Создавать темы 21-Фев-2014 15:08

[Профиль]  [ЛС] 

siyovush101 ®

Стаж: 3 года 7 месяцев

Сообщений: 205

Симпатии: 71

Всем кто имеет советь и сидирует спасибо! кому понравилось качество и мой релиз поставте лайк плиз! я один из немногих кто разместил два своих фильма с таким маленьким стажем)))


Последний раз редактировалось: siyovush101 (2014-03-10 20:04), всего редактировалось 1 раз

Создавать темы 10-Мар-2014 19:19

[Профиль]  [ЛС] 

AZIZ97

Стаж: 5 лет

Сообщений: 199

Симпатии: 22

778513КАЧАЙТЕ РЕБЯЯЯЯЯЯЯЯЯЯЯЯЯТ! мой первый релиз!
НУ если первый тогда удачи, продолжайте в том же духе лайк

Создавать темы 10-Мар-2014 19:41

[Профиль]  [ЛС] 
Показать сообщения:    
Ответить на тему

Текущее время: 23-Сен 03:33

Часовой пояс: UTC + 5



Вы не можете начинать темы
Вы не можете отвечать на сообщения
Вы не можете редактировать свои сообщения
Вы не можете удалять свои сообщения
Вы не можете голосовать в опросах
Вы не можете прикреплять файлы к сообщениям
Вы не можете скачивать файлы