Катастрофа в День независимости / Independence Daysaster (В.Д. Хоган) [2013 г., Фантастика, Боевик, HDRip] MVO

Страницы :  1, 2  След.

Ответить на тему
 

Suxrob89 ®

Стаж: 7 лет 2 месяца

Сообщений: 933

Симпатии: 564

- -Катастрофа в День независимости / Independence Daysaster- Год выпуска: 2013
Страна: Канада, Independence Day Productions
Жанр: Фантастика, Боевик
Продолжительность: 01:29:48
Перевод: Профессиональный (многоголосый, закадровый)-Режиссер: В.Д. Хоган-В ролях: Кэйси Дюбуа, Айэйн Белчер, Андреа Брукс, Николас Карелла, Аарон Крэвен, Ревард Дюфрен, Лэйн Эдвардс, Эмили Холмс, Майкл Копса, Райан Мерриман-Описание: День Независимости превращается в настоящий апокалипсис. Фильм рассказывает историю о том, как наша планета оказывается подвергнута нападению враждебных инопланетян. Президент страны на День Независимости решил отправиться в свой родной городок в одной из американских провинций. И как раз в это время на Землю обрушился инопланетный удар. Едва выживший президент объединяет свои усилия с небольшой группой местных энтузиастов, в состав которой входит ученый, занимающийся поиском инопланетных цивилизаций. Героям кинокартины «Катастрофа на День независимости» необходимо активировать единственно возможную в данном случае технологию, способную нанести поражение захватчикам-Доп. информация:
Рейтинг PG-13 - Детям до 13 лет просмотр не желателен-Качество: HDRip
Формат: AVI
Видео кодек: XviD
Аудио кодек: AC3
Видео: 720x400, 1977 Кбит/сек, 23,976 кадра/сек
Аудио: AC3, 192 Кбит/сек, 2 канала, 48,0 КГц

Media info

Общее
Полное имя                               : D:\Раздачи\Katastrofa.v.Denj.nezavisimosti.2013.HDRip.avi
Формат                                   : AVI
Формат/Информация                        : Audio Video Interleave
Размер файла                             : 1,37 Гбайт
Продолжительность                        : 1 ч. 29 м.
Общий поток                              : 2178 Кбит/сек
Программа кодирования                    : VirtualDubMod 1.5.10.2 (build 2540/release)
Библиотека кодирования                   : VirtualDubMod build 2540/release
Видео
Идентификатор                            : 0
Формат                                   : MPEG-4 Visual
Профиль формата                          : Advanced [email protected]
Параметр BVOP формата                    : 2
Параметр QPel формата                    : Нет
Параметр GMC формата                     : Без точки перехода
Параметр матрицы формата                 : Default (MPEG)
Идентификатор кодека                     : XVID
Идентификатор кодека/Подсказка           : XviD
Продолжительность                        : 1 ч. 29 м.
Битрейт                                  : 1977 Кбит/сек
Ширина                                   : 720 пикселей
Высота                                   : 400 пикселей
Соотношение сторон                       : 16:9
Частота кадров                           : 23,976 кадра/сек
Цветовое пространство                    : YUV
Субдискретизация насыщенности            : 4:2:0
Битовая глубина                          : 8 бит
Тип развёртки                            : Прогрессивная
Метод сжатия                             : С потерями
Бит/(Пиксели*Кадры)                      : 0.286
Размер потока                            : 1,24 Гбайт (91%)
Библиотека кодирования                   : XviD 1.2.1 (UTC 2008-12-04)
Аудио
Идентификатор                            : 1
Формат                                   : AC-3
Формат/Информация                        : Audio Coding 3
Расширение режима                        : CM (complete main)
Параметр Endianness формата              : Big
Идентификатор кодека                     : 2000
Продолжительность                        : 1 ч. 29 м.
Вид битрейта                             : Постоянный
Битрейт                                  : 192 Кбит/сек
Каналы                                   : 2 канала
Расположение каналов                     : Front: L R
Частота                                  : 48,0 КГц
Битовая глубина                          : 16 бит
Метод сжатия                             : С потерями
Размер потока                            : 123 Мбайт (9%)
Выравнивание                             : Разделение по промежуткам
Продолжительность промежутка             : 42  мс. (1,00 видеокадр)
Время предзагрузки промежутка            : 500  мс.

Скриншоты



Создавать темы 17-Фев-2014 07:29

[Профиль]  [ЛС] 

Xakker_xxx

Стаж: 5 лет 5 месяцев

Сообщений: 53

Симпатии: 1

Тв 3?

Создавать темы 17-Фев-2014 09:45

[Профиль]  [ЛС] 

infinity2go

Стаж: 5 лет 9 месяцев

Сообщений: 25

Эти шарики похожи на шарики из фильма Морской бой

Создавать темы 17-Фев-2014 09:45

[Профиль]  [ЛС] 

Quality

Стаж: 7 лет 3 месяца

Сообщений: 55

Симпатии: 3

Рейтинг фильма 4.0, что там смотреть можно?))))))

Создавать темы 17-Фев-2014 11:48

[Профиль]  [ЛС] 

PupuseG

Стаж: 5 лет

Сообщений: 514

Симпатии: 64

Фу-фу-фу! Название переделали, а шарики украли. Нехорошо!

Создавать темы 17-Фев-2014 13:27

[Профиль]  [ЛС] 

musofir05

Стаж: 4 года 2 месяца

Сообщений: 6

Симпатии: 2

778620Эти шарики похожи на шарики из фильма Морской бой
Наверное режиссёру фильма понравились пришельцы Морского боя.

Создавать темы 17-Фев-2014 18:50

[Профиль]  [ЛС] 

Бахтиер123

Стаж: 5 лет 9 месяцев

Сообщений: 72

Симпатии: 18

Эт точно

Создавать темы 17-Фев-2014 18:51

[Профиль]  [ЛС] 

Alex Dancer

Стаж: 5 лет 9 месяцев

Сообщений: 181

Симпатии: 21

Плагиат чистой воды. 2 фильма в один собрали.

Создавать темы 17-Фев-2014 19:23

[Профиль]  [ЛС] 

zedikus

Стаж: 3 года 8 месяцев

Сообщений: 5

Симпатии: 1

tv3

Создавать темы 18-Фев-2014 18:19

[Профиль]  [ЛС] 

jvision

Стаж: 5 лет 1 месяц

Сообщений: 61

Симпатии: 4

Топикстартеру конечно спасибо за труды!
А фильм просто трата времени зря.
Дешевый и тупой симбиоз "День независимости" и "Морского боя"

Создавать темы 18-Фев-2014 18:24

[Профиль]  [ЛС] 

Jnec

Стаж: 4 года 11 месяцев

Сообщений: 165

Спасибо!

Создавать темы 21-Фев-2014 17:36

[Профиль]  [ЛС] 

Shokhrukh17

Стаж: 4 года 3 месяца

Сообщений: 8

Стоит качать или нет?!

Создавать темы 21-Фев-2014 18:10

[Профиль]  [ЛС] 

Timofeus

Стаж: 4 года 5 месяцев

Сообщений: 35

Симпатии: 7

780672Скрины убивают.
Летающие косяками рапторы?

Создавать темы 09-Мар-2014 18:36

[Профиль]  [ЛС] 

Mehti

Стаж: 5 лет 5 месяцев

Сообщений: 140

Симпатии: 17

792072
780672Скрины убивают.
Летающие косяками рапторы?
нет псевдо костры возле белого дома)))))))

Создавать темы 12-Мар-2014 05:57

[Профиль]  [ЛС] 

ss08111995

Стаж: 4 года 9 месяцев

Сообщений: 46

Симпатии: 3

Фильм не TB3 ? по скринам заметно

Создавать темы 13-Мар-2014 13:56

[Профиль]  [ЛС] 
Показать сообщения:    
Ответить на тему

Текущее время: 18-Окт 21:52

Часовой пояс: UTC + 5



Вы не можете начинать темы
Вы не можете отвечать на сообщения
Вы не можете редактировать свои сообщения
Вы не можете удалять свои сообщения
Вы не можете голосовать в опросах
Вы не можете прикреплять файлы к сообщениям
Вы не можете скачивать файлы