Грядущее / Il futuro (Алисия Шерсон) [2013, Драма, WEB-DLRip]

Ответить на тему
 

Каротажник ®

Стаж: 4 года 2 месяца

Сообщений: 195

Симпатии: 211

Грядущее / Il futuro

Год выпуска: 2013
Страна: Италия, Чили, Германия, Испания
Жанр: Драма
Продолжительность: 01:35:17
Перевод:
Профессиональный двухголосый | Хамстер-Режиссёр: Алисия Шерсон
В ролях: Рутгер Хауэр, Мануэла Мартелли, Луиджи Чиардо, Николас Вапоридис, Алессандро Джаллокоста, Пино Калабрезе-
Когда их родители умирают, Бьянка начинает курить, а Томас все еще девственник. Сироты исследуют «опасные улицы взрослой жизни», пока Бьянка не находит Масисте, бывшего мистера Вселенная, и входит в его темный особняк
Дополнительная информация:
-
Качество: WEB-DLRip
Формат: Avi
Видео: XviD, 1798 Кбит/с, 720x400
Аудио: АС3, 6 ch, 384 Кбит/с

Media Info

General
Complete name : E:\Kino\russ\Il Futuro.2013.WEB-DLRip.HamsterStudio.org.avi
Format : AVI
Format/Info : Audio Video Interleave
File size : 1.46 GiB
Duration : 1h 35mn
Overall bit rate : 2 193 Kbps
Writing application : VirtualDubMod 1.5.10.2 (build 2540/release)
Writing library : VirtualDubMod build 2540/release
Video
ID : 0
Format : MPEG-4 Visual
Format profile : Advanced [email protected]
Format settings, BVOP : 2
Format settings, QPel : No
Format settings, GMC : No warppoints
Format settings, Matrix : Custom
Codec ID : XVID
Codec ID/Hint : XviD
Duration : 1h 35mn
Bit rate : 1 799 Kbps
Width : 720 pixels
Height : 400 pixels
Display aspect ratio : 16:9
Frame rate : 25.000 fps
Color space : YUV
Chroma subsampling : 4:2:0
Bit depth : 8 bits
Scan type : Progressive
Compression mode : Lossy
Bits/(Pixel*Frame) : 0.250
Stream size : 1.20 GiB (82%)
Writing library : XviD 1.2.1 (UTC 2008-12-04)
Audio
ID : 1
Format : AC-3
Format/Info : Audio Coding 3
Mode extension : CM (complete main)
Format settings, Endianness : Big
Codec ID : 2000
Duration : 1h 35mn
Bit rate mode : Constant
Bit rate : 384 Kbps
Channel(s) : 6 channels
Channel positions : Front: L C R, Side: L R, LFE
Sampling rate : 48.0 KHz
Bit depth : 16 bits
Compression mode : Lossy
Stream size : 262 MiB (18%)
Alignment : Split accross interleaves
Interleave, duration : 40 ms (1.00 video frame)
Interleave, preload duration : 500 ms

Скриншоты


Создавать темы 17-Фев-2014 11:14

[Профиль]  [ЛС] 
Показать сообщения:    
Ответить на тему

Текущее время: 14-Дек 07:38

Часовой пояс: UTC + 5



Вы не можете начинать темы
Вы не можете отвечать на сообщения
Вы не можете редактировать свои сообщения
Вы не можете удалять свои сообщения
Вы не можете голосовать в опросах
Вы не можете прикреплять файлы к сообщениям
Вы не можете скачивать файлы