Код доступа «Кейптаун» / Safe House (Дэниэл Эспиноза) [2012 г., боевик, триллер, криминал, детектив, BDRip 720p DUB + Original (RUS/ENG)

Ответить на тему
 

siyovush101 ®

Стаж: 3 года 6 месяцев

Сообщений: 205

Симпатии: 71

Код Доступа «Кейптаун» / Safe House
Год выпуска: 2012
Страна: США, ЮАР
Жанр: боевик, триллер, криминал, детектив
Продолжительность: 01:54:54
Перевод: Профессиональный (полное дублирование) Лицензия
Cубтитры: Нет
Режиссер: Дэниэл Эспиноза
Композитор: Ramin Djawadi
В ролях: Дензел Вашингтон, Райан Рейнольдс, Вера Фармига, Брендан Глисон, Сэм Шепард, Рубен Бладес, Нора Арнезедер, Роберт Патрик, Лиам Каннингэм, Юэль Киннаман
Описание: Выпускник Гарварда Мэтт мечтает со своей невестой переехать в Париж. Но она не знает, что уже год он работает на ЦРУ. Легендарный агент ЦРУ Фрост владеет секретной информацией. Но он вышел из-под контроля, и теперь его главное правило: «не доверяй никому — тебя предаст каждый». Их пути пересекутся в одном из красивейших городов мира — Кейптауне, где каждый должен будет сделать свой выбор...
Качество: BDRip (720p)
Формат: MKV
Видео кодек: MPEG4/AVC
Аудио кодек: AC3 MP3
Видео: 2169 Kbit/s 1280x568
Аудио1: Русский АС3, 6 ch, 384 Кбит/с
Доп. информация: Не Забываем Ставить Лайк Если Понравился Мой Релиз РАЗДАЛ 550% Дальше Сами...!!

Скриншоты


Медиа инфо

Format : Matroska
Format version : Version 2
File size : 2.41 GiB
Duration : 1h 54mn
Overall bit rate : 2 997 Kbps
Movie name : Rip by esseker
Encoded date : UTC 2012-06-16 13:40:01
Writing application : mkvmerge v5.2.1 ('A Far Off Place') built on Jan 2 2012 23:21:10
Writing library : libebml v1.2.3 + libmatroska v1.3.0
Video #1
ID : 1
Format : AVC
Format/Info : Advanced Video Codec
Format profile : [email protected]
Format settings, CABAC : Yes
Format settings, ReFrames : 3 frames
Muxing mode : Header stripping
Codec ID : V_MPEG4/ISO/AVC
Duration : 1h 54mn
Bit rate : 2 169 Kbps
Nominal bit rate : 2 300 Kbps
Width : 1 280 pixels
Height : 528 pixels
Display aspect ratio : 2.40:1
Frame rate mode : Variable
Frame rate : 23.976 fps
Color space : YUV
Chroma subsampling : 4:2:0
Bit depth : 8 bits
Scan type : Progressive
Bits/(Pixel*Frame) : 0.134
Stream size : 1.74 GiB (72%)
Title : Safe House.2012.BDRip.720p
Writing library : x264 core 116 r2019M 9cc407d
Language : English
Default : Yes
Forced : No
Audio #2
ID : 2
Format : AC-3
Format/Info : Audio Coding 3
Mode extension : CM (complete main)
Format settings, Endianness : Big
Muxing mode : Header stripping
Codec ID : A_AC3
Duration : 1h 54mn
Bit rate mode : Constant
Bit rate : 384 Kbps
Channel(s) : 6 channels
Channel positions : Front: L C R, Side: L R, LFE
Sampling rate : 48.0 KHz
Bit depth : 16 bits
Compression mode : Lossy
Delay relative to video : 20ms
Stream size : 316 MiB (13%)
Title : Äóáëÿæ
Language : Russian
Default : Yes
Forced : No
Audio #3
ID : 3
Format : AC-3
Format/Info : Audio Coding 3
Mode extension : CM (complete main)
Format settings, Endianness : Big
Muxing mode : Header stripping
Codec ID : A_AC3
Duration : 1h 54mn
Bit rate mode : Constant
Bit rate : 384 Kbps
Channel(s) : 6 channels
Channel positions : Front: L C R, Side: L R, LFE
Sampling rate : 48.0 KHz
Bit depth : 16 bits
Compression mode : Lossy
Stream size : 316 MiB (13%)
Title : Îðèãèíàë
Language : English
Default : No
Forced : No
Text #4
ID : 4
Format : UTF-8
Codec ID : S_TEXT/UTF8
Codec ID/Info : UTF-8 Plain Text
Title : esseker
Default : Yes
Forced : No
mb Всем Добро Пожаловать На Мой Релиз!!!



Последний раз редактировалось: siyovush101 (2014-03-25 01:11), всего редактировалось 22 раз(а)

Создавать темы 18-Фев-2014 01:30

[Профиль]  [ЛС] 

siyovush101 ®

Стаж: 3 года 6 месяцев

Сообщений: 205

Симпатии: 71

Ребят Если что Зовите на раздачу! В личке!

Создавать темы 18-Фев-2014 01:55

[Профиль]  [ЛС] 

siyovush101 ®

Стаж: 3 года 6 месяцев

Сообщений: 205

Симпатии: 71

Сидируйте как можете народ! я раздал 430 %


Последний раз редактировалось: siyovush101 (2014-03-14 15:08), всего редактировалось 1 раз

Создавать темы 18-Фев-2014 08:58

[Профиль]  [ЛС] 

siyovush101 ®

Стаж: 3 года 6 месяцев

Сообщений: 205

Симпатии: 71

Не Забываем Ставить Лайк Если Понравился Мой Релиз ! Фильмец Стоящий!

Создавать темы 10-Мар-2014 20:10

[Профиль]  [ЛС] 

siyovush101 ®

Стаж: 3 года 6 месяцев

Сообщений: 205

Симпатии: 71

te


Последний раз редактировалось: siyovush101 (2014-06-05 00:39), всего редактировалось 1 раз

Создавать темы 13-Мар-2014 22:43

[Профиль]  [ЛС] 

siyovush101 ®

Стаж: 3 года 6 месяцев

Сообщений: 205

Симпатии: 71

В Личке Обращайтесь если нет раздачи!

Создавать темы 25-Май-2014 12:34

[Профиль]  [ЛС] 

DigitAll

Стаж: 7 лет 3 месяца

Сообщений: 56

Симпатии: 1

siyovush101, дайте плииз раздачу

Создавать темы 24-Авг-2014 16:25

[Профиль]  [ЛС] 

xardjuma

Стаж: 4 года 6 месяцев

Сообщений: 4

siyovush101, Прошу раздачу на фильм Код доступа "Кейптаун"!

Создавать темы 18-Окт-2014 12:44

[Профиль]  [ЛС] 
Показать сообщения:    
Ответить на тему

Текущее время: 22-Авг 10:33

Часовой пояс: UTC + 5



Вы не можете начинать темы
Вы не можете отвечать на сообщения
Вы не можете редактировать свои сообщения
Вы не можете удалять свои сообщения
Вы не можете голосовать в опросах
Вы не можете прикреплять файлы к сообщениям
Вы не можете скачивать файлы