Красиво украсть / Черные метки / The Art of the Steal (Джонатан Собол) [2013, комедия, криминал, WEB-DLRip

Ответить на тему
 

Каротажник ®

Стаж: 3 года 10 месяцев

Сообщений: 195

Симпатии: 211

Красиво украсть / Черные метки / The Art of the Steal

Год выпуска: 2013
Страна: Канада
Жанр: комедия, криминал

Продолжительность: 01:30:15
Перевод: Любительское (одноголосое)

Режиссёр: Джонатан Собол
В ролях: Курт Рассел, Джей Барушель, Кэтрин Уинник, Крис Диамантополос, Кеннет Уэлш, Джейсон Джонс, Теренс Стэмп, Мэтт Диллон, Девон Бостик, Керин Двайер

Фильм рассказывает о байкере-сорвиголове, специализирующемся на краже произведений искусства. Он уже было собрался завязать с преступным прошлым, но все-таки не находит в себе силы отказаться от осуществления еще одной очень заманчивой кражи вместе со своим неблагонадежным братцем. Все в итоге идет наперекосяк, поскольку оказывается, что у каждого из братьев свой план.




Качество: WEB-DLRip
Формат:Avi

Видео: XviD ,1618 kb/s, 720x298
Аудио: Russian: MP3, 192 kb/s (2 ch)
Аудио: English: AC3, 384 kb/s (6 ch)

Media Info

Format : AVI
Format/Info : Audio Video Interleave
File size : 1.33 GiB
Duration : 1h 30mn
Overall bit rate : 2 111 Kbps
Movie name : Downloaded from RARBG.COM
Writing application : VirtualDubMod 1.5.10.2 (build 2540/release)
Writing library : VirtualDubMod build 2540/release
Comment : Downloaded from RARBG.COM
Video
ID : 0
Format : xvid
Codec ID : xvid
Duration : 1h 30mn
Bit rate : 1 521 Kbps
Width : 720 pixels
Height : 298 pixels
Display aspect ratio : 2.40:1
Frame rate : 23.976 fps
Bits/(Pixel*Frame) : 0.296
Stream size : 982 MiB (72%)
Audio #1
ID : 1
Format : MPEG Audio
Format version : Version 1
Format profile : Layer 3
Mode : Joint stereo
Mode extension : MS Stereo
Codec ID : 55
Codec ID/Hint : MP3
Duration : 1h 30mn
Bit rate mode : Constant
Bit rate : 192 Kbps
Channel(s) : 2 channels
Sampling rate : 44.1 KHz
Compression mode : Lossy
Stream size : 124 MiB (9%)
Alignment : Aligned on interleaves
Interleave, duration : 42 ms (1.00 video frame)
Interleave, preload duration : 522 ms
Audio #2
ID : 2
Format : AC-3
Format/Info : Audio Coding 3
Mode extension : CM (complete main)
Format settings, Endianness : Big
Codec ID : 2000
Duration : 1h 30mn
Bit rate mode : Constant
Bit rate : 384 Kbps
Channel(s) : 6 channels
Channel positions : Front: L C R, Side: L R, LFE
Sampling rate : 48.0 KHz
Bit depth : 16 bits
Compression mode : Lossy
Stream size : 248 MiB (18%)
Alignment : Split accross interleaves
Interleave, duration : 42 ms (1.00 video frame)
Interleave, preload duration : 500 ms

Скриншоты



Создавать темы 18-Фев-2014 03:27

[Профиль]  [ЛС] 

Makbet85

Стаж: 3 года 9 месяцев

Сообщений: 9

отпишитесь как фильм

Создавать темы 24-Фев-2014 11:44

[Профиль]  [ЛС] 

Mansurbek84

Стаж: 6 лет 9 месяцев

Сообщений: 80

Симпатии: 8

Судя по описанию и по рейтингу фильм хороший, а вот перевод... Спс релизеру. Курт Рассел хороший актер бывших времен.

Создавать темы 24-Фев-2014 15:53

[Профиль]  [ЛС] 
Показать сообщения:    
Ответить на тему

Текущее время: 24-Авг 13:43

Часовой пояс: UTC + 5



Вы не можете начинать темы
Вы не можете отвечать на сообщения
Вы не можете редактировать свои сообщения
Вы не можете удалять свои сообщения
Вы не можете голосовать в опросах
Вы не можете прикреплять файлы к сообщениям
Вы не можете скачивать файлы