Повелитель Тьмы на подработке! / Сатана на полставки! / Hataraku Maou-sama! (Хосода Наото) [TV] [13 из 13] [без хардсаба] [ JAP+SUB] [2013 г., комедия, повседневность, романтика, пародия, BDRip] [720p]

Ответить на тему
 

Vergil ®

Стаж: 6 лет 4 месяца

Сообщений: 689

Повелитель Тьмы на подработке! / Hataraku Maou-sama!- Год выпуска: 2013
Страна: Япония
Жанр: комедия, повседневность, романтика, пародия
Продолжительность: 13 эп. по 24 мин.-Перевод:
  • русские субтитры от Eternal HARO (полные/вспомогательные) [1-5]
    переводчик: Xellos Slayer, редакторы: Libra, To aru Evafan
  • русские субтитры от NekoSubs (полные/вспомогательные) [6-7]
    редакторы: alex_asmodey, Violist, Zlatoglazka, переводчик: Kventin Dorvard, тайм-код/оформление: ZeroKawe
  • русские субтитры от Gerale (полные/вспомогательные) [8-13]
-Режиссер: Хосода Наото
Студия: White Fox-Описание: В одной далекой-далекой галактике местный Князь Тьмы, он же Сатана, потерпел сокрушительное поражение. Когда все было кончено, и лучшие бойцы человечества, возглавляемые героем Эмилией, ворвались в его замок, темный повелитель, собрав остатки сил, открыл магический портал, куда и прыгнул вместе с генералом Алсиэлем. Астральная буря забросила двух могучих демонов в наш мир, где они, немного осмотревшись, с ужасом поняли, что потеряли почти всю магию, телесно превратились в обычных человеческих парней, языка не знают, а жизнь в Токио совсем не дешевая!
Ну, падшим ангелам к трудностям не привыкать. Последние крохи дара ушли на адаптацию в новом мире и поиски жилья – дальше все, приехали, надо честно зарабатывать. А что лучше всего умеют Князья Тьмы? Конечно же, работать с людьми! Так что пока верный Алсиэль ведет хозяйство и ищет пути к утраченному величию, Сатана, ныне просто Садао Мао, вовсю трудится в известной империи фастфуда, смущая народ колой и жареной картошкой. Садао - передовик труда, впереди маячит должность менеджера, но тут… как на грех, является герой Эмилия, тоже переброшенная в наш мир. С одной стороны, конечно, плохо. А с другой – будет с кем поговорить по душам, да и остальные ребята, глядишь, подтянутся! © Hollow, World Art-Информационные ссылки: AniDB || World Art || MAL-Качество: BDRip Winter - RG Pantheon
Формат: mkv
Видео: x264 (Hi10p), 1280x720, ~2800 Kbps, 23.976 fps
Аудио JAP: Vorbis, 48000Hz, ~256 Kbps, 2ch

Список эпизодов

01. The Devil Arrives in Sasazuka
02. The Hero Stays at the Devil`s Castle for Work Reasons
03. The Devil Goes on a Date with His Junior in Shinjuku
04. The Hero Experiences Human Warmth
05. The Devil and the Hero Save Sasazuka
06. The Devil Climbs the Stairway to School
07. The Devil`s Budget Is Saved by Neighborliness
08. The Hero Enters the Fray
09. The Hero Experiences a Fray
10. The Devil and the Hero Take a Break from the Daily Routine
11. The Hero Stays True to Her Convictions
12. The Devil Carries Out His Duties
13. The Devil and the Hero Do Some Honest Hard Work

Скриншоты

Отличия от других раздач

http://tas-ix.net/viewtopic.php?t=67879 - BDRip

Подробные тех. данные

Общее
Уникальный идентификатор : 177850366967535414697414701541430477236 (0x85CCBC17ADAAB410B8F1D6D2E5C941B4)
Полное имя : Z:\Anime\720p\Hataraku Maou-sama! [BD] [720p]\[Winter] Hataraku Maou-sama! 01 [BDrip 1280x720 x264 Vorbis].mkv
Формат : Matroska
Версия формата : Version 2
Размер файла : 452 Мбайт
Продолжительность : 23 м.
Режим общего битрейта : Переменный
Общий поток : 2660 Кбит/сек
Дата кодирования : UTC 2013-07-20 08:57:50
Программа кодирования : mkvmerge v2.9.8 ('C'est le bon') built on Aug 13 2009 12:49:06
Библиотека кодирования : libebml v0.7.7 + libmatroska v0.8.1
Видео
Идентификатор : 1
Формат : AVC
Формат/Информация : Advanced Video Codec
Профиль формата : High [email protected]
Параметр CABAC формата : Да
Параметр ReFrames формата : 9 кадров
Идентификатор кодека : V_MPEG4/ISO/AVC
Продолжительность : 23 м.
Битрейт : 2351 Кбит/сек
Ширина : 1280 пикселей
Высота : 720 пикселей
Соотношение сторон : 16:9
Режим частоты кадров : Постоянный
Частота кадров : 23,976 кадра/сек
Цветовое пространство : YUV
Субдискретизация насыщенности : 4:2:0
Битовая глубина : 10 бит
Тип развёртки : Прогрессивная
Бит/(Пиксели*Кадры) : 0.106
Размер потока : 400 Мбайт (88%)
Библиотека кодирования : x264 core 132 r2309 3b1f1f7
Настройки программы : cabac=1 / ref=9 / deblock=1:-2:-2 / analyse=0x3:0x133 / me=umh / subme=9 / psy=1 / psy_rd=0.90:0.00 / mixed_ref=1 / me_range=24 / chroma_me=1 / trellis=2 / 8x8dct=1 / cqm=0 / deadzone=21,11 / fast_pskip=1 / chroma_qp_offset=-2 / threads=6 / lookahead_threads=1 / sliced_threads=0 / nr=0 / decimate=0 / interlaced=0 / bluray_compat=0 / constrained_intra=0 / bframes=8 / b_pyramid=2 / b_adapt=2 / b_bias=0 / direct=1 / weightb=1 / open_gop=0 / weightp=2 / keyint=250 / keyint_min=23 / scenecut=40 / intra_refresh=0 / rc=crf / mbtree=0 / crf=15.8 / qcomp=0.70 / qpmin=9 / qpmax=40 / qpstep=4 / ip_ratio=1.40 / pb_ratio=1.30 / aq=1:0.90
Default : Нет
Forced : Нет
Аудио
Идентификатор : 2
Формат : Vorbis
Параметр Floor формата : 1
Идентификатор кодека : A_VORBIS
Продолжительность : 23 м.
Вид битрейта : Переменный
Битрейт : 256 Кбит/сек
Каналы : 2 канала
Частота : 48,0 КГц
Метод сжатия : С потерями
Размер потока : 43,5 Мбайт (10%)
Библиотека кодирования : libVorbis (Schaufenugget) (20101101 (Schaufenugget))
Язык : Japanese
Default : Да
Forced : Нет

Создавать темы 18-Фев-2014 15:41

[Профиль]  [ЛС] 

MeiDoCorpse

Стаж: 4 года 7 месяцев

Сообщений: 222

Симпатии: 14

От Фани не дождался...
Vergil, за релиз спасибо!

Создавать темы 18-Фев-2014 16:02

[Профиль]  [ЛС] 

GENMUTAT

Стаж: 5 лет 11 месяцев

Сообщений: 18

Симпатии: 11

спс классная анимешка
вот ток.....
где озвучка ???

Создавать темы 18-Фев-2014 16:14

[Профиль]  [ЛС] 

Vergil ®

Стаж: 6 лет 4 месяца

Сообщений: 689

как всегда раздаю с 23:00 до 8:00
MeiDoCorpse, Я Фани сказал, что уже скачал. у него 30 % должно быть кажись, на 22 прохешировалось. Кстати вчера на полную скорость не плохо BRS раздал, сёдня надеюсь также будет
GENMUTAT, ты же сказал, что там нет, которая тебе нравится и ты найдёшь сам. нэ? я для Densetsu no Yuusha no Densetsu [BD] [720p] скачал озвучку

Создавать темы 18-Фев-2014 17:52

[Профиль]  [ЛС] 

GENMUTAT

Стаж: 5 лет 11 месяцев

Сообщений: 18

Симпатии: 11

ксо попутал сори

Создавать темы 18-Фев-2014 21:13

[Профиль]  [ЛС] 
Показать сообщения:    
Ответить на тему

Текущее время: 11-Дек 18:12

Часовой пояс: UTC + 5



Вы не можете начинать темы
Вы не можете отвечать на сообщения
Вы не можете редактировать свои сообщения
Вы не можете удалять свои сообщения
Вы не можете голосовать в опросах
Вы не можете прикреплять файлы к сообщениям
Вы не можете скачивать файлы