[#144]Тайна в его глазах / Тайна в её глазах / The Secret in Their Eyes / El secreto de sus ojos (Хуан Хосе Кампанелла / Juan José Campanella) [2009, Испания, Аргентина, драма, мелодрама, детектив, BDRip] MVO

Ответить на тему
 

razor2011 ®

Стаж: 5 лет

Сообщений: 227

Симпатии: 37

Тайна в его глазах / The Secret in Their Eyes / El secreto de sus ojos-- Страна: Испания, Аргентина
Жанр: драма, мелодрама, детектив
Год выпуска: 2009
Продолжительность: 02:09:15
Перевод: Профессиональный (многоголосый закадровый)
Cубтитры: нет-Режиссер: Хуан Хосе Кампанелла / Juan José Campanella
Продюсер: Мариэла Безуевски, Хуан Хосе Кампанелла, Каролина Урбиета
Оператор: Феликс Монти
Художник: Марсело Понт Вергес, Сесилия Монти-В ролях: Соледад Вильямиль (Irene Menéndez Hastings), Рикардо Дарин (Benjamín Esposito), Карла Кеведо (Liliana Coloto), Пабло Раго (Ricardo Morales), Хавьер Годино (Isidoro Gómez), Барбара Палладино (Chica Piropo), Руди Романо (Ordóñez), Алехандра Абеленда (Pinche Mariano), Марио Аларкон (Juez Fortuna Lacalle), Гильермо Франселла (Pablo Sandoval), Sebastián Blanco (Pinche Tino), Мариано Ардженто (Romano)
Описание: Бенхамин Эспосито - судебный служащий, который решает написать роман об одном уголовном деле, в котором он был свидетелем и главным действующим лицом…-Доп. информация:
| | | 18+-Качество видео: BDRip
Формат видео: AVI
Видео: Xvid 720x304 23.98fps 1 814 Kbps
Аудио: Dolby AC3 48000Hz 6ch 448kbps

MI

General
Complete name : C:\Downloads\tayna_v_ego_glazah_m.avi
Format : AVI
Format/Info : Audio Video Interleave
Format profile : OpenDML
File size : 2.05 GiB
Duration : 2h 9mn
Overall bit rate : 2 274 Kbps
Writing application : VirtualDubMod 1.5.4.1 (build 2178/release)
Writing library : VirtualDubMod build 2178/release
Video
ID : 0
Format : MPEG-4 Visual
Format profile : Advanced [email protected]
Format settings, BVOP : Yes
Format settings, QPel : No
Format settings, GMC : No warppoints
Format settings, Matrix : Custom
Codec ID : XVID
Codec ID/Hint : XviD
Duration : 2h 9mn
Bit rate : 1 814 Kbps
Width : 720 pixels
Height : 304 pixels
Display aspect ratio : 2.35:1
Frame rate : 23.976 fps
Resolution : 8 bits
Colorimetry : 4:2:0
Scan type : Progressive
Bits/(Pixel*Frame) : 0.346
Stream size : 1.64 GiB (80%)
Writing library : XviD 58
Audio
ID : 1
Format : AC-3
Format/Info : Audio Coding 3
Format_Settings_ModeExtension : CM (complete main)
Codec ID : 2000
Duration : 2h 9mn
Bit rate mode : Constant
Bit rate : 448 Kbps
Channel(s) : 6 channels
Channel positions : Front: L C R, Side: L R, LFE
Sampling rate : 48.0 KHz
Stream size : 414 MiB (20%)
Alignment : Split accross interleaves
Interleave, duration : 42 ms (1.00 video frame)
Interleave, preload duration : 500 ms

Скриншоты



Создавать темы 18-Фев-2014 16:42

[Профиль]  [ЛС] 

tovaris

Стаж: 6 лет 3 месяца

Сообщений: 52

Симпатии: 4

razor2011, спасибо, что отыскал фильм. Название интригующее. Понравился очень испанский фильм Комната 211. Надеюсь и от просмотра этого фильма получить удовольствие.

Создавать темы 18-Фев-2014 17:06

[Профиль]  [ЛС] 

razor2011 ®

Стаж: 5 лет

Сообщений: 227

Симпатии: 37

tovaris, мне фильм понравился очень !!!

Создавать темы 18-Фев-2014 17:13

[Профиль]  [ЛС] 

hamilion

Стаж: 5 лет

Сообщений: 155

Симпатии: 14

а почему не золото?

Создавать темы 19-Фев-2014 01:16

[Профиль]  [ЛС] 

icefrog_ss

Стаж: 5 лет 1 месяц

Сообщений: 69

Симпатии: 3

ОК!!!!

Создавать темы 02-Мар-2014 12:23

[Профиль]  [ЛС] 
Показать сообщения:    
Ответить на тему

Текущее время: 25-Сен 21:54

Часовой пояс: UTC + 5



Вы не можете начинать темы
Вы не можете отвечать на сообщения
Вы не можете редактировать свои сообщения
Вы не можете удалять свои сообщения
Вы не можете голосовать в опросах
Вы не можете прикреплять файлы к сообщениям
Вы не можете скачивать файлы