Драконий Жемчуг Зет: Битва Богов / Dragon Ball Z: Kami to Kami / Dragon Ball Z: Battle of Gods [Movie] [Без хардсаба] [JAP, SUB][2013 г.,приключения, сенен, боевик, BDRip] [1080p]

Ответить на тему
 

VAIO ®

Стаж: 5 лет 9 месяцев

Сообщений: 1568

Симпатии: 1399

-Драконий Жемчуг Зет: Битва БоговDragon Ball Z: Battle of Gods- Страна: Япония
Год выпуска: 2013 г.
Жанр: приключения, комедия, фэнтези, сёнэн
Тип: Movie
Продолжительность: 01:25:07
Режиссер: Масахиро Хосода/Masahiro Hosoda-Описание: Спустя пять лет после победы над Маджином Буу, Бульма празднует свой День Рождения и устраивает большую вечеринку для всех своих друзей. Однако, омрачить её собирается новый ужасный бог - Биллз, Бог Разрушения. Выполняющий обязанность уничтожать всё, что прожило достаточно долгое время, ради поддержания баланса, Биллз нацелил свой взгляд на планету Земля! Но не только исполнение долга в планах ужасного Бога - Биллз отправляется на далёкую Землю, чтобы встретиться с тем, с кем ему предначертано сразиться судьбой - Богом Супер Саян-Качество: BDRip
Формат видео: MP4
Релиз/Автор рипа: anoXmous
Видео: MPEG-4, 8 bit, 1920 x 1080, ~1964 Кбит/сек, 23.976 fps
Аудио 1: AAC, 384 Кбит/сек, 6 каналов, 48,0 КГц Язык: Японский
Аудио 2: AAC, ~128 Кбит/сек, 2 канала, 48,0 КГц Язык: Японский
Субтитры: внешние - полные; Язык субтитров: русский;
Перевод: by Daiver MAB
-

MediaInfo

-Общее
Полное имя : D:\Dragon Ball Z - Battle Of Gods (2013)\Dragon Ball Z - Battle Of Gods (2013).mp4
Формат : MPEG-4
Профиль формата : Base Media
Идентификатор кодека : isom
Размер файла : 1,47 Гбайт
Продолжительность : 1 ч. 25 м.
Режим общего битрейта : Переменный
Общий поток : 2472 Кбит/сек
Дата кодирования : UTC 2013-10-20 16:09:12
Дата пометки : UTC 2013-10-20 16:09:12-Видео
Идентификатор : 1
Формат : AVC
Формат/Информация : Advanced Video Codec
Профиль формата : [email protected]
Параметр CABAC формата : Да
Параметр ReFrames формата : 4 кадра
Идентификатор кодека : avc1
Идентификатор кодека/Информация : Advanced Video Coding
Продолжительность : 1 ч. 25 м.
Битрейт : 1964 Кбит/сек
Максимальный битрейт : 15,4 Мбит/сек
Ширина : 1920 пикселей
Высота : 1080 пикселей
Соотношение сторон : 16:9
Режим частоты кадров : Постоянный
Частота кадров : 23,976 кадра/сек
Цветовое пространство : YUV
Субдискретизация насыщенности : 4:2:0
Битовая глубина : 8 бит
Тип развёртки : Прогрессивная
Бит/(Пиксели*Кадры) : 0.040
Размер потока : 1,17 Гбайт (79%)
Библиотека кодирования : x264 core 138 r2358 9e941d1
Настройки программы : cabac=1 / ref=3 / deblock=1:0:0 / analyse=0x3:0x113 / me=hex / subme=7 / psy=1 / psy_rd=1.00:0.00 / mixed_ref=1 / me_range=16 / chroma_me=1 / trellis=1 / 8x8dct=1 / cqm=0 / deadzone=21,11 / fast_pskip=1 / chroma_qp_offset=-2 / threads=12 / lookahead_threads=2 / sliced_threads=0 / nr=0 / decimate=1 / interlaced=0 / bluray_compat=0 / constrained_intra=0 / bframes=4 / b_pyramid=2 / b_adapt=1 / b_bias=0 / direct=1 / weightb=1 / open_gop=0 / weightp=2 / keyint=240 / keyint_min=23 / scenecut=40 / intra_refresh=0 / rc_lookahead=40 / rc=2pass / mbtree=1 / bitrate=1964 / ratetol=1.0 / qcomp=0.60 / qpmin=0 / qpmax=69 / qpstep=4 / cplxblur=20.0 / qblur=0.5 / vbv_maxrate=62500 / vbv_bufsize=78125 / nal_hrd=none / ip_ratio=1.40 / aq=1:1.00
Дата кодирования : UTC 2013-10-20 16:09:12
Дата пометки : UTC 2013-10-20 16:09:54-Аудио #1
Идентификатор : 2
Формат : AAC
Формат/Информация : Advanced Audio Codec
Профиль формата : LC
Идентификатор кодека : 40
Продолжительность : 1 ч. 25 м.
Вид битрейта : Переменный
Битрейт : 384 Кбит/сек
Максимальный битрейт : 473 Кбит/сек
Каналы : 6 каналов
Расположение каналов : Front: L C R, Side: L R, LFE
Частота : 48,0 КГц
Метод сжатия : С потерями
Размер потока : 231 Мбайт (15%)
Язык : Japanese
Дата кодирования : UTC 2013-10-20 14:19:53
Дата пометки : UTC 2013-10-20 16:09:54-Аудио #2
Идентификатор : 3
Формат : AAC
Формат/Информация : Advanced Audio Codec
Профиль формата : LC
Идентификатор кодека : 40
Продолжительность : 1 ч. 25 м.
Вид битрейта : Переменный
Битрейт : 124 Кбит/сек
Максимальный битрейт : 141 Кбит/сек
Каналы : 2 канала
Расположение каналов : Front: L R
Частота : 48,0 КГц
Метод сжатия : С потерями
Размер потока : 75,6 Мбайт (5%)
Язык : Japanese
Дата кодирования : UTC 2013-10-20 14:28:15
Дата пометки : UTC 2013-10-20 16:09:54
-

Скриншоты

-

Создавать темы 18-Фев-2014 18:14

[Профиль]  [ЛС] 

Топик был перенесен из форума Полнометражные аниме в форум RAW с фансабом
Азиз87

Создавать темы 18-Фев-2014 18:41

 

Азиз87

Стаж: 4 года 11 месяцев

Сообщений: 752

Симпатии: 143

Чем снимали скриншоты к релизу?

Создавать темы 18-Фев-2014 18:42

[Профиль]  [ЛС] 

GENMUTAT

Стаж: 5 лет 9 месяцев

Сообщений: 18

Симпатии: 11

Автор а сериал есть ???

Создавать темы 18-Фев-2014 21:05

[Профиль]  [ЛС] 

VAIO ®

Стаж: 5 лет 9 месяцев

Сообщений: 1568

Симпатии: 1399

779767Чем снимали скриншоты к релизу?
Старый добрый медиа плеер классик.
GENMUTAT, Есть.
Странно личиков вообще нету, может зря создал раздачу : (

Создавать темы 19-Фев-2014 12:09

[Профиль]  [ЛС] 

Rambotnik

Стаж: 6 лет 6 месяцев

Сообщений: 1274

Симпатии: 81

Странно личиков вообще нету, может зря создал раздачу : (
Так Вы не светитесь в списке сидов, вот и личеров нет... пока что.

Создавать темы 19-Фев-2014 15:35

[Профиль]  [ЛС] 

Monkey.D.Luffy

Стаж: 5 лет 9 месяцев

Сообщений: 263

VAIO,
можети залит послы 185 серии?

Создавать темы 20-Фев-2014 08:59

[Профиль]  [ЛС] 

daniellya

Стаж: 5 лет 6 месяцев

Сообщений: 338

Симпатии: 29

Я плакал кровавыми слезами после этого мувика Т_Т

Создавать темы 30-Мар-2014 00:56

[Профиль]  [ЛС] 

zigger

Стаж: 4 года 9 месяцев

Сообщений: 15

Симпатии: 1

Да зайлейте плс dragon ball z i kai

Создавать темы 17-Июл-2014 00:29

[Профиль]  [ЛС] 

Топик был перенесен из форума RAW с фансабом в форум Dragon Ball (Драконий Жемчуг)
[email protected]

Создавать темы 03-Июн-2015 16:41

 
Показать сообщения:    
Ответить на тему

Текущее время: 24-Окт 07:27

Часовой пояс: UTC + 5



Вы не можете начинать темы
Вы не можете отвечать на сообщения
Вы не можете редактировать свои сообщения
Вы не можете удалять свои сообщения
Вы не можете голосовать в опросах
Вы не можете прикреплять файлы к сообщениям
Вы не можете скачивать файлы