12 лет рабства / 12 Years a Slave (Стив МакКуин) [2013, драма, биография, история, WEB DLRip] Лицензия

Ответить на тему
 

Каротажник ®

Стаж: 4 года 1 месяц

Сообщений: 195

Симпатии: 211

12 лет рабства / 12 Years a Slave

Год выпуска: 2013
Страна: США, Великобритания

Жанр: драма, биография, история
Продолжительность: 02:14:05
Перевод: Дублированный [Лицензия]

Режиссёр: Стив МакКуин

Брэд Питт, Чиветель Эджиофор, Майкл Фассбендер, Бенедикт Камбербэтч, Пол Дано, Пол Джаматти, Лупита Нионго, Сара Полсон, Элфри Вудард, Куавенжаней Уоллис

Соломон Нортап был женатым и образованным мужчиной, который жил и работал в Нью-Йорке, когда два человека однажды предложили ему привлекательную работу в Вашингтоне. По прибытии он был похищен, стал рабом и влачил жалкую жизнь, переходя от одного хозяина к другому.




Качество: WEB DLRip
Формат: Avi

Видео: Xvid 720x400 24fps 1070kbps
Аудио: AC3 48000Hz 6ch 384kbps

Media Info

General
Complete name : E:\Kino\russ\12.Let.Rabstva.2013.D.WEBDLRip.1400Mb.avi
Format : AVI
Format/Info : Audio Video Interleave
File size : 1.37 GiB
Duration : 2h 13mn
Overall bit rate : 1 464 Kbps
Writing application : VirtualDubMod 1.5.10.2 (build 2540/release)
Writing library : VirtualDubMod build 2540/release
Video
ID : 0
Format : MPEG-4 Visual
Format profile : Advanced [email protected]
Format settings, BVOP : 2
Format settings, QPel : No
Format settings, GMC : No warppoints
Format settings, Matrix : Custom
Codec ID : XVID
Codec ID/Hint : XviD
Duration : 2h 13mn
Bit rate : 1 071 Kbps
Width : 720 pixels
Height : 400 pixels
Display aspect ratio : 16:9
Frame rate : 24.000 fps
Color space : YUV
Chroma subsampling : 4:2:0
Bit depth : 8 bits
Scan type : Progressive
Compression mode : Lossy
Bits/(Pixel*Frame) : 0.155
Stream size : 1.00 GiB (73%)
Writing library : XviD 1.2.1 (UTC 2008-12-04)
Audio
ID : 1
Format : AC-3
Format/Info : Audio Coding 3
Mode extension : CM (complete main)
Format settings, Endianness : Big
Codec ID : 2000
Duration : 2h 13mn
Bit rate mode : Constant
Bit rate : 384 Kbps
Channel(s) : 6 channels
Channel positions : Front: L C R, Side: L R, LFE
Sampling rate : 48.0 KHz
Bit depth : 16 bits
Compression mode : Lossy
Stream size : 368 MiB (26%)
Alignment : Split accross interleaves
Interleave, duration : 42 ms (1.00 video frame)
Interleave, preload duration : 500 ms

Скриншоты


Создавать темы 18-Фев-2014 19:32

[Профиль]  [ЛС] 

Abdusomad

Стаж: 5 лет 1 месяц

Сообщений: 13

спасибо! так ждал этот фильм.

Создавать темы 18-Фев-2014 21:36

[Профиль]  [ЛС] 

livestyle

Стаж: 5 лет 9 месяцев

Сообщений: 9

Болшое спасибо!!!!

Создавать темы 19-Фев-2014 19:11

[Профиль]  [ЛС] 

sarvar-aka

Стаж: 5 лет 1 месяц

Сообщений: 34

Симпатии: 1

Золотой ты человек, Setora.

Создавать темы 19-Фев-2014 23:23

[Профиль]  [ЛС] 

Lazerboy

Стаж: 6 лет 6 месяцев

Сообщений: 57

Симпатии: 13

дааа!!! очень трогательный фильм

Создавать темы 20-Фев-2014 21:50

[Профиль]  [ЛС] 

Rowman

Стаж: 5 лет 1 месяц

Сообщений: 41

фильм просто чудесный!

Создавать темы 21-Фев-2014 19:31

[Профиль]  [ЛС] 

alibaba1997

Стаж: 5 лет 8 месяцев

Сообщений: 138

Симпатии: 9

Отличный фильм

Создавать темы 23-Фев-2014 21:22

[Профиль]  [ЛС] 
Показать сообщения:    
Ответить на тему

Текущее время: 20-Ноя 16:50

Часовой пояс: UTC + 5



Вы не можете начинать темы
Вы не можете отвечать на сообщения
Вы не можете редактировать свои сообщения
Вы не можете удалять свои сообщения
Вы не можете голосовать в опросах
Вы не можете прикреплять файлы к сообщениям
Вы не можете скачивать файлы