Я плюю на ваши могилы 2. / I Spit On Your Grave 2. (Стивен Р. Монро / Steven R. Monroe.) [2013 г., Ужасы, Tриллер., HDRip][Чистый 3вук]

Ответить на тему
 

X3JumperRaZ0R ®

Стаж: 5 лет 1 месяц

Сообщений: 177

Симпатии: 151

Я плюю на ваши могилы 2. / I Spit On Your Grave 2.<<Выжить Чтобы Отомстить>> Год выпуска: 2013
Страна: США.
Жанр: Ужасы, Tриллер.
Продолжительность: 01:46:11
Перевод: Профессиональный (полное дублирование) [Чистый 3вук]-Режиссер: Стивен Р. Монро / Steven R. Monroe.-В ролях: Джемма Даллендер, Явор Бахаров, Джо Эбсолом, Александр Алексеев, Мэри Стокли, Валентин Пелка, Георг Златарев, Питер Сильверлиф, Майкл Диксон, Кейси Барнфилд.-Описание: Красавица Кэти только что переехала в Нью-Йорк, чтобы сделать карьеру модели. Но девичьи мечты о роскошной жизни разбиваются: ее насилуют, пытают, а вскоре похищают и увозят в непонятном направлении. Кэти оказывается одна в чужой стране, где ее почти что похоронят заживо. Чудом избежав смерти, девушка решает жестоко отомстить обидчикам…--Премьера (Мир): 25 августа 2013.
Премьера (РФ): 5 сентября 2013.
--Качество: HDRip.
Формат: AVI.
Видео кодек: XviD.
Аудио кодек: AC3.
Видео: 720x304 (2.37:1), 23.976 fps, XviD build 73 ~1493 kbps avg, 0.28 bit/pixel.
Аудио: 48 kHz, AC3 Dolby Digital, 3/2 (L,C,R,l,r) + LFE ch, ~448.00 kbps avg.
Возраст: 18+

MI

General
Complete name : D:\kino-5\555\I.Spit.On.Your.Grave.2.2013.HDRip.([email protected]).RaZ0RxJ.avi
Format : AVI
Format/Info : Audio Video Interleave
File size : 1.45 GiB
Duration : 1h 46mn
Overall bit rate : 1 951 Kbps
Writing application : VirtualDubMod 1.5.10.2 (build 2540/release)
Writing library : VirtualDubMod build 2540/release
Video
ID : 0
Format : MPEG-4 Visual
Format profile : Advanced [email protected]
Format settings, BVOP : 1
Format settings, QPel : No
Format settings, GMC : No warppoints
Format settings, Matrix : Custom
Codec ID : XVID
Codec ID/Hint : XviD
Duration : 1h 46mn
Bit rate : 1 493 Kbps
Width : 720 pixels
Height : 304 pixels
Display aspect ratio : 2.35:1
Frame rate : 23.976 fps
Color space : YUV
Chroma subsampling : 4:2:0
Bit depth : 8 bits
Scan type : Progressive
Compression mode : Lossy
Bits/(Pixel*Frame) : 0.285
Stream size : 1.11 GiB (77%)
Writing library : XviD 73
Audio
ID : 1
Format : AC-3
Format/Info : Audio Coding 3
Mode extension : CM (complete main)
Codec ID : 2000
Duration : 1h 46mn
Bit rate mode : Constant
Bit rate : 448 Kbps
Channel(s) : 6 channels
Channel positions : Front: L C R, Side: L R, LFE
Sampling rate : 48.0 KHz
Bit depth : 16 bits
Compression mode : Lossy
Stream size : 340 MiB (23%)
Alignment : Aligned on interleaves
Interleave, duration : 42 ms (1.00 video frame)
Interleave, preload duration : 512 ms

Скриншоты



Создавать темы 19-Фев-2014 07:35

[Профиль]  [ЛС] 

sprut66

Стаж: 4 года 6 месяцев

Сообщений: 51

Симпатии: 5

Раздайте кто-нибудь пожалуйста.

Создавать темы 06-Мар-2016 14:59

[Профиль]  [ЛС] 

sprut66

Стаж: 4 года 6 месяцев

Сообщений: 51

Симпатии: 5

Спасибо, класный фильм.

Создавать темы 29-Апр-2016 13:14

[Профиль]  [ЛС] 
Показать сообщения:    
Ответить на тему

Текущее время: 19-Авг 10:29

Часовой пояс: UTC + 5



Вы не можете начинать темы
Вы не можете отвечать на сообщения
Вы не можете редактировать свои сообщения
Вы не можете удалять свои сообщения
Вы не можете голосовать в опросах
Вы не можете прикреплять файлы к сообщениям
Вы не можете скачивать файлы