Афган. Фильм Андрея Кондрашова. (Сергей Краус) [2014 г., Док, SATRip]

Ответить на тему
 

NeymaR ®

Стаж: 3 года 11 месяцев

Сообщений: 68

Симпатии: 16

Афган. Фильм Андрея Кондрашова.2014 год.- Год выпуска: 2014 год.
Страна: Россия.
Студия: ВГТРК "Россия".
Жанр: Документальный, политическая журналистика.
Продолжительность: 01:41:37
Перевод: Не требуется.
Русские субтитры: Нет.-Режиссёр:Сергей Краус.-Описание:25 лет назад, в феврале 1989 года, Советский Союз вывел войска из Афганистана. Закончилась последняя война огромной и еще единой страны. Что это было – провал или победа? Кто все это время оставался в тени военных баталий? Как в Афганистане столкнулись ГРУ и ЦРУ? Кто извлек прибыль из этой войны?
В фильме Андрея Кондрашова впервые открывают тайны те, чьим долгом было молчать. Нелегалы Главного разведуправления, лазутчики афганской спецслужбы ХАД, главари моджахедов, а также главный резидент ЦРУ, отвечавший за все диверсии на той войне. Это он уничтожил господство советской авиации в афганском небе: поставил душманам "Стингеры". Но на чем так неожиданно поскользнулось ЦРУ?
Зрителям предстоит узнать неизвестные подробности знаменитого штурма Дворца Амина.
Какую роль в ликвидации президента Афганистана сыграл советский мусульманский батальон?
Кто эти герои, шедшие во Дворец под шквалом огня без бронежилетов? Почему афганцы до сих пор в шоке от коварства и хитрости ЭТИХ "русских"? Много лет наши комбаты не знали, почему моджахедам заранее становилось известно о времени и направлениях масштабных советских атак. Оказывается, у них были информаторы в руководстве Минобороны и даже в ЦК КПСС. Сегодняшний преемник Ахмад-Шаха Масуда впервые называет поименно всех предателей в Москве, из-за которых гибли сотнями наши солдаты в Афганистане.
Противостояние на перевале Саланг. Мы увидим, как наш комбат, желая взять в плен самого матерого душмана, попал на женскую половину афганского дома. Что было потом и почему этого комбата полевые командиры теперь угощают пловом? Невероятная встреча с заклятыми врагами 30 лет спустя. И почему до сих пор в Афгане идёт война ...-Качество: SATRip
Формат: avi
Видео кодек: DiVX
Аудио кодек: mp3
Видео: 3299 Kbps, 1280*720(16/9),at 25.000 fps, MPEG-4 Visual (DivX 5)
Аудио: 192 Kbps, 48.0 KHz, 2 channels, MPEG Audio (MP3) (Version 1) (Layer 3) (joint stereo)-

Media INFO

General
Complete name                    : D:\Download\AFGAN_2014.avi
Format                           : AVI
Format/Info                      : Audio Video Interleave
File size                        : 2.48 GiB
Duration                         : 1h 41mn
Overal bit rate                  : 3501 Kbps
Video
Format                           : MPEG-4 Visual
Format settings, BVOP            : No
Format settings, QPel            : No
Format settings, GMC             : No warppoints
Format settings, Matrix          : Default
Codec ID                         : DX50
Codec ID/Hint                    : DivX 5
Duration                         : 1h 41mn
Bit rate                         : 3299 Kbps
Width                            : 1280 pixels
Height                           : 720 pixels
Display aspect ratio             : 16/9
Frame rate                       : 25.000 fps
Resolution                       : 8 bits
Colorimetry                      : 4:2:0
Scan type                        : Interlaced
Scan order                       : Top Field First
Bits/(Pixel*Frame)               : 0.143
Stream size                      : 2.34 GiB (94%)
Title                            : Video
Writing library                  : DivX 2682
Audio
Format                           : MPEG Audio
Format version                   : Version 1
Format profile                   : Layer 3
Codec ID                         : 55
Codec ID/Hint                    : MP3
Duration                         : 1h 41mn
Bit rate mode                    : Constant
Bit rate                         : 192 Kbps
Channel(s)                       : 2 channels
Sampling rate                    : 48.0 KHz
Resolution                       : 16 bits
Stream size                      : 139 MiB (5%)
Title                            : Audio

Скриншоты



Последний раз редактировалось: NeymaR (2014-02-19 19:51), всего редактировалось 3 раз(а)

Создавать темы 19-Фев-2014 08:31

[Профиль]  [ЛС] 

alecs-wert

Стаж: 5 лет 8 месяцев

Сообщений: 13

Модераторам!Жду Этот фильм!

Создавать темы 19-Фев-2014 17:16

[Профиль]  [ЛС] 

victor0778

Стаж: 6 лет 8 месяцев

Сообщений: 1670

Симпатии: 142

NeymaR, битрейт видео? и шапку поправьте (режиссер)

Создавать темы 19-Фев-2014 17:54

[Профиль]  [ЛС] 

NeymaR ®

Стаж: 3 года 11 месяцев

Сообщений: 68

Симпатии: 16

victor0778, Вот я поправил все посмотрите ешё раз если есть ошибки поправьте... Заранее благодарю

Создавать темы 19-Фев-2014 19:53

[Профиль]  [ЛС] 
Показать сообщения:    
Ответить на тему

Текущее время: 21-Окт 15:34

Часовой пояс: UTC + 5



Вы не можете начинать темы
Вы не можете отвечать на сообщения
Вы не можете редактировать свои сообщения
Вы не можете удалять свои сообщения
Вы не можете голосовать в опросах
Вы не можете прикреплять файлы к сообщениям
Вы не можете скачивать файлы