Том и Джерри и волшебник из страны Оз / Tom and Jerry & The Wizard of Oz (Спайк Брандт) [2011 г., мультфильм, семейный, HDTVRip]

Ответить на тему
 

qwertyBoom55 ®

Стаж: 3 года 10 месяцев

Сообщений: 19

Том и Джерри и волшебник из страны Оз / Tom and Jerry & The Wizard of Oz
Год выпуска: 2011
Страна: США, Warner Bros.
Жанр: мультфильм, семейный
Продолжительность: 00:59:13-Режиссер: Спайк Брандт-В ролях: Том и Джерри,Грей ДеЛайл, Джо Аляски, Майкл Гоф, Роб Полсен, Тодд Стэшвик, Фрэнсис Конрой, Лорейн Ньюмен, Стивен Рут, Кэт Сауси-Перевод: Полный дубляж-Описание: Том и Джерри парят над радугой и двигаются вниз по дороге из желтого кирпича и на пути им встречаются всем знакомые анимированные персонажи и пересказ классической истории.-Формат: AVI
Качества: HDTVRip-Видео:MPEG4/AVC, 1280х720 (2,40:1), 4 834 Кбит/сек, 23.976 кадра/сек
Аудио:Русский (АС3, 2 ch, 320 Кбит/с)-

Media-Info

General
Unique ID : 201943066644142520110364126819774168820 (0x97ECD1E5B232B35AB340F75961CCFEF4)
Complete name : D:\Кино\Мултьфилм\Мултьфилм\tom and jerry\Tom and Jerry & The Wizard of Oz.avi
Format : Matroska
Format version : Version 2
File size : 2.13 GiB
Duration : 59mn 13s
Overall bit rate : 5 156 Kbps
Movie name : Rip by Aspro
Encoded date : UTC 2011-09-09 05:26:37
Writing application : mkvmerge v3.2.0 ('Beginnings') built on Feb 12 2010 16:46:17
Writing library : libebml v0.7.9 + libmatroska v0.8.1
Video
ID : 1
Format : AVC
Format/Info : Advanced Video Codec
Format profile : [email protected]
Format settings, CABAC : Yes
Format settings, ReFrames : 2 frames
Codec ID : V_MPEG4/ISO/AVC
Duration : 59mn 13s
Bit rate : 4 834 Kbps
Width : 1 280 pixels
Height : 720 pixels
Display aspect ratio : 16:9
Frame rate mode : Constant
Frame rate : 23.976 fps
Color space : YUV
Chroma subsampling : 4:2:0
Bit depth : 8 bits
Scan type : Progressive
Bits/(Pixel*Frame) : 0.219
Stream size : 1.96 GiB (92%)
Title : Том и Джерри и волшебник из страны Оз.[ElemenTeam.org]
Writing library : x264 core 112 r1834 a51816a
Encoding settings : cabac=1 / ref=2 / deblock=1:0:0 / analyse=0x3:0x113 / me=hex / subme=6 / psy=1 / psy_rd=1.00:0.00 / mixed_ref=0 / me_range=16 / chroma_me=1 / trellis=0 / 8x8dct=1 / cqm=0 / deadzone=21,11 / fast_pskip=1 / chroma_qp_offset=-2 / threads=4 / sliced_threads=0 / nr=0 / decimate=1 / interlaced=0 / constrained_intra=0 / bframes=3 / b_pyramid=0 / b_adapt=1 / b_bias=0 / direct=3 / weightb=1 / open_gop=0 / weightp=2 / keyint=250 / keyint_min=25 / scenecut=40 / intra_refresh=0 / rc_lookahead=40 / rc=2pass / mbtree=1 / bitrate=4834 / ratetol=1.0 / qcomp=0.60 / qpmin=10 / qpmax=51 / qpstep=4 / cplxblur=20.0 / qblur=0.5 / ip_ratio=1.41 / aq=1:1.00
Language : English
Default : Yes
Forced : No
Audio
ID : 2
Format : AC-3
Format/Info : Audio Coding 3
Mode extension : CM (complete main)
Format settings, Endianness : Big
Codec ID : A_AC3
Duration : 59mn 13s
Bit rate mode : Constant
Bit rate : 320 Kbps
Channel(s) : 2 channels
Channel positions : Front: L R
Sampling rate : 48.0 KHz
Bit depth : 16 bits
Compression mode : Lossy
Stream size : 136 MiB (6%)
Title : DUB
Language : Russian
Default : Yes
Forced : No

Скриншоты






Последний раз редактировалось: qwertyBoom55 (2014-02-20 13:55), всего редактировалось 15 раз(а)

Создавать темы 19-Фев-2014 20:47

[Профиль]  [ЛС] 

qwertyBoom55 ®

Стаж: 3 года 10 месяцев

Сообщений: 19

Щас исправлю

Создавать темы 19-Фев-2014 20:47

[Профиль]  [ЛС] 

shakhnozka

Стаж: 4 года

Сообщений: 26

Симпатии: 2

раздачу бы :)

Создавать темы 19-Фев-2014 23:52

[Профиль]  [ЛС] 

СтАсИкОс

Стаж: 6 лет 11 месяцев

Сообщений: 314

Симпатии: 20

Шаблоны для оформления релизов

Создавать темы 20-Фев-2014 00:07

[Профиль]  [ЛС] 

qwertyBoom55 ®

Стаж: 3 года 10 месяцев

Сообщений: 19

СтАсИкОс, Оформлю сегодня

Создавать темы 20-Фев-2014 07:08

[Профиль]  [ЛС] 

shakhnozka

Стаж: 4 года

Сообщений: 26

Симпатии: 2

99,8 ну чучуть терпите :)

Создавать темы 23-Фев-2014 21:13

[Профиль]  [ЛС] 

ahmad2702

Стаж: 5 лет 2 месяца

Сообщений: 6

А хороший мульт просто у меня игра качается, если хороша то скачаю, чтож поделать

Создавать темы 07-Мар-2014 15:23

[Профиль]  [ЛС] 
Показать сообщения:    
Ответить на тему

Текущее время: 11-Дек 12:44

Часовой пояс: UTC + 5



Вы не можете начинать темы
Вы не можете отвечать на сообщения
Вы не можете редактировать свои сообщения
Вы не можете удалять свои сообщения
Вы не можете голосовать в опросах
Вы не можете прикреплять файлы к сообщениям
Вы не можете скачивать файлы