Несчастный / Под несчастливой звездой / Star-Crossed /Сезон 1, серии 01x01-13 из 13 [Гэри Фледер, Норман Бакли, Майкл Прессман] (Фантастика, мелодрама, 2014) WEB-DLRip | BaibaKo / Alt Pro

Страницы :  1, 2, 3  След.

Ответить на тему
 

emilsky ®

Стаж: 7 лет 4 месяца

Сообщений: 2237

Симпатии: 610

Информация о фильме
Название: Несчастный / Под несчастливой звездой
Оригинальное название: Star-Crossed
Год выхода: 2014
Жанр: Фантастика, мелодрама
Режиссеры: Гэри Фледер, Норман Бакли, Майкл Прессман
В ролях: Челси Джиллигэн, Малез Джоу, Эшлин МакИверс, Кэйден Монтгомри, Эйми Тигарден, Блейкли Дарсам, Старлетт Миариаунии, Тирин Беланжер, Кевонт Макдональд, Виктория Габриэлль Платт
О фильме:
Сериал рассказывает об эпической любви между человеком и инопланетянином, когда он и еще восемь таких как он интегрировались в пригородную среднюю школу. Спустя 10 лет сотни таких прилетели на Землю и сразу были заточены в подземную тюрьму, где они и находятся до сих пор.

Страна: США
Продолжительность: ~ 00:44:00
Перевод: Профессиональный (многоголосый, закадровый) BaibaKo 1-2 серии
Перевод: Любительский (многоголосый, закадровый) Alt Pro остальные
Файл
Качество: WEB-DLRip
Формат: AVI
Видео: 720x400 (1.80:1), 23.976 fps, XviD build 50 ~1 499 kbps
Аудио Rus: 48 kHz, AC-3, 6 ch, ~384 kbps
Субтитры: нет-

МИ

f:\Сериалы\Star-Crossed_season_1\P0d.nes4astnoy.zvezdoy.s01e01.bbk.WEB-DLRip.avi
General
Complete name : f:\Сериалы\Star-Crossed_season_1\P0d.nes4astnoy.zvezdoy.s01e01.bbk.WEB-DLRip.avi
Format : AVI
Format/Info : Audio Video Interleave
File size : 578 MiB
Duration : 42mn 41s
Overall bit rate : 1 893 Kbps
Writing application : VirtualDubMod 1.5.10.3 | www.virtualdub-fr.org || (build 2550/release)
Writing library : VirtualDubMod build 2550/release
Video #0
ID : 0
Format : MPEG-4 Visual
Format profile : Advanced [email protected]
Format settings, BVOP : 2
Format settings, QPel : No
Format settings, GMC : No warppoints
Format settings, Matrix : Default (MPEG)
Codec ID : XVID
Codec ID/Hint : XviD
Duration : 42mn 41s
Bit rate : 1 499 Kbps
Width : 720 pixels
Height : 400 pixels
Display aspect ratio : 16:9
Frame rate : 23.976 fps
Color space : YUV
Chroma subsampling : 4:2:0
Bit depth : 8 bits
Scan type : Progressive
Compression mode : Lossy
Bits/(Pixel*Frame) : 0.217
Stream size : 458 MiB (79%)
Writing library : XviD 73
Audio #1
ID : 1
Format : AC-3
Format/Info : Audio Coding 3
Mode extension : CM (complete main)
Format settings, Endianness : Big
Codec ID : 2000
Duration : 42mn 41s
Bit rate mode : Constant
Bit rate : 384 Kbps
Channel(s) : 6 channels
Channel positions : Front: L C R, Side: L R, LFE
Sampling rate : 48.0 KHz
Bit depth : 16 bits
Compression mode : Lossy
Stream size : 117 MiB (20%)
Alignment : Split accross interleaves
Interleave, duration : 42 ms (1.00 video frame)
Interleave, preload duration : 500 ms

Скриншоты



Последний раз редактировалось: emilsky (2014-05-16 09:12), всего редактировалось 14 раз(а)

Создавать темы 20-Фев-2014 05:57

[Профиль]  [ЛС] 

emilsky ®

Стаж: 7 лет 4 месяца

Сообщений: 2237

Симпатии: 610

Качай укуке, нормальный пилот, рейтинг тоже ничего

Создавать темы 20-Фев-2014 08:54

[Профиль]  [ЛС] 

jony_rony

Стаж: 5 лет 2 месяца

Сообщений: 14

Симпатии: 1

спасибо за сериал 2-я дорожками класс

Создавать темы 20-Фев-2014 09:43

[Профиль]  [ЛС] 

jony_rony

Стаж: 5 лет 2 месяца

Сообщений: 14

Симпатии: 1

эмил почему с одним дорожками??

Комментарий от emilsky


мой косяк, со второй серией исправлю!

Создавать темы 21-Фев-2014 12:14

[Профиль]  [ЛС] 

s_veyc

Стаж: 3 года 11 месяцев

Сообщений: 155

У этих инопланетян постоянно, на лицах разные татушки... добивает немного даже. Они ведь всё таки разумные существа!!! неужели они не придумали другие способы знаков отличия? )))

Создавать темы 26-Фев-2014 03:22

[Профиль]  [ЛС] 

PupuseG

Стаж: 5 лет 1 месяц

Сообщений: 514

Симпатии: 64

Из-за озвучки желание пропадает качать!=(

Создавать темы 26-Фев-2014 06:18

[Профиль]  [ЛС] 

s_veyc

Стаж: 3 года 11 месяцев

Сообщений: 155

785174Из-за озвучки желание пропадает качать!=(
А вот зря!!! Тут сам сюжет классный!!! и без голоса всё понятно... Мне фильм понравился и я жду продолжения!!!

Создавать темы 26-Фев-2014 17:17

[Профиль]  [ЛС] 

s_veyc

Стаж: 3 года 11 месяцев

Сообщений: 155

Всё же Америкоты Умеют вставлять красивых девчонок и не менее дорогие машины!!!

Создавать темы 26-Фев-2014 17:18

[Профиль]  [ЛС] 

s_veyc

Стаж: 3 года 11 месяцев

Сообщений: 155

emilsky,
И как будете добавлять последующие серии?
P.s. Жду с нетерпением

Создавать темы 26-Фев-2014 17:20

[Профиль]  [ЛС] 

PupuseG

Стаж: 5 лет 1 месяц

Сообщений: 514

Симпатии: 64

s_veyc, я не тороплюсь. Я подожду другую озвучку, а если никто не возьмется, то придется качать их.
Вижу есть и Альтернатив продакшн, но с ними не связывался.
Говорят, что альтернатив в разы лучше, чем байбако. Но на вкус и цвет... - как говорится.

Создавать темы 26-Фев-2014 17:22

[Профиль]  [ЛС] 

SengokuBasara

Стаж: 4 года 6 месяцев

Сообщений: 4

Смотрел Атлантиду, Синбад с переводом от Байбаки , мне понравилось!!!!! жду 2 серии очень очень!!!!!!

Создавать темы 26-Фев-2014 18:23

[Профиль]  [ЛС] 

s_veyc

Стаж: 3 года 11 месяцев

Сообщений: 155

PupuseG,
Я когда начинал смотреть эту серию думал, что ухо будет резать, но от качества картинки и идеи самого сюжета автоматом про все забыл. Ну будет какое изменение, я только за! А пока меня всё устраивает....

Создавать темы 26-Фев-2014 22:59

[Профиль]  [ЛС] 

owner

Стаж: 5 лет 3 месяца

Сообщений: 6

Симпатии: 1

Вторая серия уже в паблике. Когда будет на трекере? :)

Создавать темы 27-Фев-2014 11:40

[Профиль]  [ЛС] 

emilsky ®

Стаж: 7 лет 4 месяца

Сообщений: 2237

Симпатии: 610

2 серия!

Создавать темы 28-Фев-2014 08:53

[Профиль]  [ЛС] 

owner

Стаж: 5 лет 3 месяца

Сообщений: 6

Симпатии: 1

Чуууувак, я только ночью ее поставил качать, запаздал. А так, спасибо.

Создавать темы 28-Фев-2014 09:17

[Профиль]  [ЛС] 
Показать сообщения:    
Ответить на тему

Текущее время: 23-Ноя 14:12

Часовой пояс: UTC + 5



Вы не можете начинать темы
Вы не можете отвечать на сообщения
Вы не можете редактировать свои сообщения
Вы не можете удалять свои сообщения
Вы не можете голосовать в опросах
Вы не можете прикреплять файлы к сообщениям
Вы не можете скачивать файлы