Первопроходец / Pioneer (Эрик Шёлдбьерг) [2013 г., Триллер, HDRip]

Ответить на тему
 

Suxrob89 ®

Стаж: 7 лет 4 месяца

Сообщений: 933

Симпатии: 564

-Первопроходец / Pioneer- Год выпуска: 2013
Страна: Норвегия, Германия, Швеция, Франция, Финляндия
Жанр: Триллер
Продолжительность: 01:51:14
Перевод: Любительский (одноголосый)[datynet]-Режиссер: Эрик Шёлдбьерг-В ролях: Уэс Бентли, Стивен Лэнг, Аксель Хенни, Джонатан ЛаПалья, Стефани Сигман, Ёрген Лангхелле, Эни Даль Торп, Андре Эриксен, Эндре Хеллествейт, Арни Линдтнер Нэсс-Описание: Начало 1980-х гг. В Северном море обнаружены огромные запасы нефти и газа. В начале норвежского нефтяного бума власти намерены любой ценой доставлять на берег «черное» и «голубое золото» планеты по трубопроводу с глубины 500 метров, перед этим проводя разведку месторождения. Профессиональный дайвер Петтер, одержимый идеей достижения дна Норвежского моря, — полон решимости, силы и мужества, чтобы браться за самую опасную в мире работу и спуститься на эту глубину. Но неожиданная случайность меняет все. И теперь Петтер отправляется в опасное путешествие, в котором он теряет из вида того, кто дергает за ниточки в этой многомиллионной игре, постепенно понимая, что он оказывается на его пути и что его жизнь находится под угрозой.-Качество: HDRip
Формат: AVI
Видео кодек: XviD
Аудио кодек: MP3
Видео: 1555 kb/s, 720x304
Аудио: MP3, 192 kb/s (2 ch)

Medi ainfo

E:\Pioneer.2013.L1.HDRip.1400MB.avi
General
Complete name : E:\Pioneer.2013.L1.HDRip.1400MB.avi
Format : AVI
Format/Info : Audio Video Interleave
File size : 1.36 GiB
Duration : 1h 51mn
Overall bit rate : 1 756 Kbps
Writing application : VirtualDubMod 1.5.10.3 | www.virtualdub-fr.org || (build 2550/release)
Writing library : VirtualDubMod build 2550/release
Video #0
ID : 0
Format : MPEG-4 Visual
Format profile : Advanced [email protected]
Format settings, BVOP : 2
Format settings, QPel : No
Format settings, GMC : No warppoints
Format settings, Matrix : Custom
Codec ID : XVID
Codec ID/Hint : XviD
Duration : 1h 51mn
Bit rate : 1 555 Kbps
Width : 720 pixels
Height : 304 pixels
Display aspect ratio : 2.35:1
Frame rate : 24.000 fps
Color space : YUV
Chroma subsampling : 4:2:0
Bit depth : 8 bits
Scan type : Progressive
Compression mode : Lossy
Bits/(Pixel*Frame) : 0.296
Stream size : 1.21 GiB (89%)
Writing library : XviD 1.2.1 (UTC 2008-12-04)
Audio #1
ID : 1
Format : MPEG Audio
Format version : Version 1
Format profile : Layer 3
Codec ID : 55
Codec ID/Hint : MP3
Duration : 1h 51mn
Bit rate mode : Constant
Bit rate : 192 Kbps
Channel count : 2 channels
Sampling rate : 44.1 KHz
Compression mode : Lossy
Stream size : 153 MiB (11%)
Alignment : Split accross interleaves
Interleave, duration : 42 ms (1.00 video frame)
Interleave, preload duration : 500 ms

Скриншоты




Создавать темы 20-Фев-2014 05:59

[Профиль]  [ЛС] 

Dimon_198787

Стаж: 7 лет 5 месяцев

Сообщений: 101

Ну как фильм кто смотрел отпишитесь?

Создавать темы 20-Фев-2014 10:10

[Профиль]  [ЛС] 
Показать сообщения:    
Ответить на тему

Текущее время: 12-Дек 07:40

Часовой пояс: UTC + 5



Вы не можете начинать темы
Вы не можете отвечать на сообщения
Вы не можете редактировать свои сообщения
Вы не можете удалять свои сообщения
Вы не можете голосовать в опросах
Вы не можете прикреплять файлы к сообщениям
Вы не можете скачивать файлы