Черные метки/The Art of the Steal (Джонатан Собол) [2013г | комедия, криминал | WEB-DL 720p]

Ответить на тему
 

NeymaR ®

Стаж: 3 года 11 месяцев

Сообщений: 68

Симпатии: 16

Черные метки/The Art of the Steal-«It takes a great artist to pull off the perfect con»- Год выпуска: 2013
Жанр:комедия, криминал
Cтрана: Канада
Перевод: Любительский (одноголосый, закадровый) - qwerty
Продолжительность: 01:30:15-Режиссер: Джонатан Собол
Cценарий: Джонатан Собол
Продюсер: Джефф Сэкман, Ной Сигал, Марк Слоун
Оператор: Адам Свика
Композитор: Грэйсон Мэтьюз
Художник: Мэттью Дейвис, Питер Эмминк
Монтаж: Джофф Ашенхёрст-В главных ролях: Курт Рассел, Джей Барушель, Кэтрин Уинник, Крис Диамантополос, Кеннет Уэлш, Джейсон Джонс, Теренс Стэмп, Мэтт Диллон, Девон Бостик, Керин Двайер-Краткое описание:Фильм рассказывает о байкере-сорвиголове, специализирующемся на краже произведений искусства. Он picpicуже было собрался завязать с преступным прошлым, но все-таки не находит в себе силы отказаться от осуществления еще одной очень заманчивой кражи вместе со своим неблагонадежным братцем. Все в итоге идет наперекосяк, поскольку оказывается, что у каждого из братьев свой план.-Рейтинг:
 -Качество: WEB-DL 720p
Формат: MKV
Видео данные: MPEG4/AVC, 1280х530 (2,40:1), 3892 Кбит/сек, 23.976 кадра/сек
Аудио данные: Русский (АС3, 2 ch, 192 Кбит/с), английский (АС3, 6 ch, 384 Кбит/с)-

Media Info

Format : Matroska
Format version : Version 2
File size : 2.87 GiB
Duration : 1h 30mn
Overall bit rate : 4 559 Kbps
Encoded date : UTC 2014-02-17 14:26:00
Writing application : mkvmerge v5.8.0 ('No Sleep / Pillow') built on Sep 2 2012 15:37:04
Writing library : libebml v1.2.3 + libmatroska v1.3.0
Video
ID : 1
Format : AVC
Format/Info : Advanced Video Codec
Format profile : [email protected]
Format settings, CABAC : No
Format settings, ReFrames : 2 frames
Codec ID : V_MPEG4/ISO/AVC
Duration : 1h 30mn
Bit rate : 3 892 Kbps
Width : 1 280 pixels
Height : 530 pixels
Display aspect ratio : 2.40:1
Frame rate mode : Constant
Frame rate : 23.976 fps
Color space : YUV
Chroma subsampling : 4:2:0
Bit depth : 8 bits
Scan type : Progressive
Bits/(Pixel*Frame) : 0.239
Stream size : 2.45 GiB (85%)
Title : iTunes (US)
Language : English
Default : Yes
Forced : No
Color primaries : BT.709
Transfer characteristics : BT.709
Matrix coefficients : BT.709
Audio #1
ID : 2
Format : AC-3
Format/Info : Audio Coding 3
Mode extension : CM (complete main)
Format settings, Endianness : Big
Codec ID : A_AC3
Duration : 1h 30mn
Bit rate mode : Constant
Bit rate : 192 Kbps
Channel(s) : 2 channels
Channel positions : Front: L R
Sampling rate : 44.1 KHz
Bit depth : 16 bits
Compression mode : Lossy
Stream size : 124 MiB (4%)
Title : L1 | qwerty
Language : Russian
Default : Yes
Forced : No
Audio #2
ID : 3
Format : AC-3
Format/Info : Audio Coding 3
Mode extension : CM (complete main)
Format settings, Endianness : Big
Codec ID : A_AC3
Duration : 1h 30mn
Bit rate mode : Constant
Bit rate : 384 Kbps
Channel(s) : 6 channels
Channel positions : Front: L C R, Side: L R, LFE
Sampling rate : 48.0 KHz
Bit depth : 16 bits
Compression mode : Lossy
Stream size : 248 MiB (8%)
Title : 384 Kbps | iTunes (US)
Language : English
Default : No
Forced : No
Text
ID : 4
Format : UTF-8
Codec ID : S_TEXT/UTF8
Codec ID/Info : UTF-8 Plain Text
Title : ENG
Language : English
Default : No
Forced : No
Menu
00:00:00.000 : en:Chapter 01
00:07:11.000 : en:Chapter 02
00:15:16.000 : en:Chapter 03
00:22:17.000 : en:Chapter 04
00:30:47.000 : en:Chapter 05
00:38:22.000 : en:Chapter 06
00:45:26.000 : en:Chapter 07
00:52:35.000 : en:Chapter 08
00:59:56.000 : en:Chapter 09
01:07:21.000 : en:Chapter 10
01:17:03.000 : en:Chapter 11
01:23:50.000 : en:Chapter 12
-

Скриншоты

Создавать темы 20-Фев-2014 08:33

[Профиль]  [ЛС] 
Показать сообщения:    
Ответить на тему

Текущее время: 21-Окт 06:26

Часовой пояс: UTC + 5



Вы не можете начинать темы
Вы не можете отвечать на сообщения
Вы не можете редактировать свои сообщения
Вы не можете удалять свои сообщения
Вы не можете голосовать в опросах
Вы не можете прикреплять файлы к сообщениям
Вы не можете скачивать файлы